Нью-Йорк, Нью-Йорк / Synecdoche, New York (Чарли Кауфман / Charlie Kaufman) [2008, США, комедия, драма, HDRip] MVO

 
Автор Сообщение

TorrentFilm ®

Пол:

Стаж: 2 года

Сообщений: 7741



Награды: Нет

Торрент-статистика

Создавать темы 10-Мар-2016 00:08

[Цитировать]

Нью-Йорк, Нью-Йорк / Synecdoche, New York

Страна: США
Жанр: комедия, драма
Год выпуска: 2008
Продолжительность: 02:03:49
Перевод: Профессиональный (многоголосый закадровый)
Cубтитры: нет

Режиссер: Чарли Кауфман / Charlie Kaufman
В ролях: Филип Сеймур Хоффман, Кэтрин Кинер, Сэди Голдштейн, Том Нунен, Питер Фридман, Чарльз Текман, Джош Пэйс, Дэниэл Лондон, Роберт Сиэй, Мишель Уильямс, Саманта Мортон, Эми Спейнджер, Дженнифер Джейсон Ли
Описание: Директор театра в творческом кризисе пытается разобраться со своей жизнью и окружающими его женщинами. Наконец, посчитав, что не стоит тратить свою жизнь впустую, он решает поставить «важную и искреннюю пьесу», для этой цели воздвигая настоящую живую модель Нью-Йорка в заброшенном складе. Он переживает муки любви и страдает от непонятных болезней…
Качество видео: HDRip [Synecdoche.New.York.2008.BDRip.(720p).mkv]
Формат видео: AVI
Видео: 672x288 (2.33:1), 23.976 fps, XviD build 73 ~704 kbps avg, 0.15 bit/pixel
Аудио: 48 kHz, MPEG Layer 3, 2 ch, ~128.00 kbps avg

MediaInfo

Общее
Полное имя : H:\Synecdoche.New.York.2008.hdrip_[745]_[teko].avi
Формат : AVI
Формат/Информация : Audio Video Interleave
Размер файла : 746 Мбайт
Продолжительность : 2 ч. 3 м.
Общий поток : 842 Кбит/сек
Программа кодирования : VirtualDubMod 1.5.10.3 | www.virtualdub-fr.org || (build 2550/release)
Библиотека кодирования : VirtualDubMod build 2550/release
Видео
Идентификатор : 0
Формат : MPEG-4 Visual
Профиль формата : Advanced Simple@L5
Параметр BVOP формата : 2
Параметр QPel формата : Нет
Параметр GMC формата : Без точки перехода
Параметр матрицы формата : Выборочная
Идентификатор кодека : XVID
Идентификатор кодека/Подсказка : XviD
Продолжительность : 2 ч. 3 м.
Битрейт : 705 Кбит/сек
Ширина : 672 пикселя
Высота : 288 пикселей
Соотношение сторон : 2,35:1
Частота кадров : 23,976 кадра/сек
Цветовое пространство : YUV
Субдискретизация насыщенности : 4:2:0
Битовая глубина : 8 бит
Тип развёртки : Прогрессивная
Метод сжатия : С потерями
Бит/(Пиксели*Кадры) : 0.152
Размер потока : 624 Мбайт (84%)
Библиотека кодирования : XviD 73
Аудио
Идентификатор : 1
Формат : MPEG Audio
Версия формата : Version 1
Профиль формата : Layer 3
Идентификатор кодека : 55
Идентификатор кодека/Подсказка : MP3
Продолжительность : 2 ч. 3 м.
Вид битрейта : Постоянный
Битрейт : 128 Кбит/сек
Каналы : 2 канала
Частота : 48,0 КГц
Метод сжатия : С потерями
Размер потока : 113 Мбайт (15%)
Выравнивание : Соединение по промежуткам
Продолжительность промежутка : 42 мс. (1,00 видеокадр)
Время предзагрузки промежутка : 504 мс.
Библиотека кодирования : LAME3.98r
Настройки программы : -m s -V 4 -q 2 -lowpass 17 -b 128
Релиз группы:
--
[Профиль] [ЛС]

Создавать темы 12-Июн-2016 08:50 (спустя 3 месяца 2 дня)

Топик был перенесен из форума Фильмы 2011 года в форум Фильмы 2006-2008 года
Russian Mafia
 
Кто просматривает тему:

Показать сообщения:    

Текущее время: Сегодня 04:23

Часовой пояс: GMT



Вы не можете начинать темы
Вы не можете отвечать на сообщения
Вы не можете редактировать свои сообщения
Вы не можете удалять свои сообщения
Вы не можете голосовать в опросах
Вы не можете прикреплять файлы к сообщениям
Вы не можете скачивать файлы