Нью-Джек-Сити / New Jack City (1991) BDRip 1080p

 
Автор Сообщение

sergej644 ®

Пол:

Стаж: 4 года 11 месяцев

Сообщений: 6046

Откуда: Soviet Union



Награды: Нет

Торрент-статистика

Создавать темы 16-Фев-2015 18:52

[Цитировать]

-- Информация о фильме
Год выхода: 1991
Жанр: триллер, драма, криминал
Режиссер: Марио Ван Пиблз
В ролях: Уэсли Снайпс, Айс-Ти, Аллен Пэйн, Крис Рок, Марио Ван Пиблз, Майкл Мишель, Билл Нанн, Расселл Вонг, Билл Коббс, Кристофер Уильямс
О фильме:
Нино Браун удачлив в делах и в жизни. Он молод, богат, красив и подает большие надежды. Однако, настоящее его занятие — это торговля наркотиками, здесь его «золотое дно» во всех смыслах. Нино влиятелен и жесток в своем деле, он считает себя неуязвимым. Тем более, что мало кто противостоит ему, разве только всего лишь какие-то заурядные парни, полицейские… Гангстерский босс недооценил своих врагов…

Выпущено: США | Jackson/McHenry Films; Jacmac Films; Warner Bros. Pictures
Продолжительность: 01:40:29
Перевод: Профессиональный (многоголосый, закадровый) Варус Видео + Профессиональный (двухголосый, закадровый) НТВ+ + Авторский (одноголосый, закадровый) Андрей Гаврилов + Оригинал (английский)
Субтитры: английские
Файл
Качество: BDRip 1080p
Видео: 9392 Kbps, 1920x1080, 23.976fps
Аудио #1: 48 kHz, AC3, 2ch, 192 kbps |MVO, Варус Видео|
Аудио #2: 48 kHz, AC3, 2ch, 192 kbps |DVO, НТВ+|
Аудио #3: 48 kHz, AC3, 2ch, 192 kbps |AVO, А.Гаврилов|
Аудио #4: 48 kHz, DTS, 6ch, 1509 kbps |Original, English|
Размер: 8.05 GB
Автор рипа: ad3wal3 (corega)

M/I

General
Unique ID : 222599153912603901112257049554197779460 (0xA77709A0E92D61C79F797331E7819404)
Complete name : F:New.Jack.City.1991.1080p.BluRay.x264.AC3.DTS.3xRus.Eng.by.ad3wal3.mkv
Format : Matroska
Format version : Version 4 / Version 2
File size : 8.05 GiB
Duration : 1h 40mn
Overall bit rate : 11.4 Mbps
Encoded date : UTC 2015-02-07 06:37:04
Writing application : mkvmerge v7.4.0 ('Circles') 32bit built on Dec 12 2014 12:10:09
Writing library : libebml v1.3.0 + libmatroska v1.4.1
_STATISTICS_WRITING_APP : mkvmerge v7.4.0 ('Circles') 32bit built on Dec 12 2014 12:10:09
_STATISTICS_WRITING_DATE_UT : 2015-02-07 06:37:04
_STATISTICS_TAGS : BPS DURATION NUMBER_OF_FRAMES NUMBER_OF_BYTES
DURATION : 01:39:41.641000000
NUMBER_OF_FRAMES : 1225
NUMBER_OF_BYTES : 44987
Video
ID : 1
Format : AVC
Format/Info : Advanced Video Codec
Format profile : High@L4.1
Format settings, CABAC : Yes
Format settings, ReFrames : 4 frames
Codec ID : V_MPEG4/ISO/AVC
Duration : 1h 40mn
Bit rate : 9 392 Kbps
Width : 1 920 pixels
Height : 1 080 pixels
Display aspect ratio : 16:9
Frame rate mode : Constant
Frame rate : 23.976 fps
Color space : YUV
Chroma subsampling : 4:2:0
Bit depth : 8 bits
Scan type : Progressive
Bits/(Pixel*Frame) : 0.189
Stream size : 6.42 GiB (80%)
Title : New.Jack.City.1991.1080p.BluRay.x264.AC3.DTS.3xRus.Eng.MVO.Varus.Video.by.ad3wal3
Writing library : x264 core 125 r2208 d9d2288
Encoding settings : cabac=1 / ref=4 / deblock=1:0:0 / analyse=0x3:0x113 / me=umh / subme=8 / psy=1 / psy_rd=1.00:0.00 / mixed_ref=1 / me_range=16 / chroma_me=1 / trellis=1 / 8x8dct=1 / cqm=0 / deadzone=21,11 / fast_pskip=1 / chroma_qp_offset=-2 / threads=12 / lookahead_threads=2 / sliced_threads=0 / nr=0 / decimate=1 / interlaced=0 / bluray_compat=0 / constrained_intra=0 / bframes=3 / b_pyramid=2 / b_adapt=2 / b_bias=0 / direct=3 / weightb=1 / open_gop=0 / weightp=2 / keyint=240 / keyint_min=24 / scenecut=40 / intra_refresh=0 / rc_lookahead=50 / rc=2pass / mbtree=1 / bitrate=9392 / ratetol=1.0 / qcomp=0.60 / qpmin=0 / qpmax=69 / qpstep=4 / cplxblur=20.0 / qblur=0.5 / ip_ratio=1.40 / aq=1:1.00
Language : English
Default : Yes
Forced : No
DURATION : 01:40:29.024000000
NUMBER_OF_FRAMES : 144552
NUMBER_OF_BYTES : 7068493147
_STATISTICS_WRITING_APP : mkvmerge v7.4.0 ('Circles') 32bit built on Dec 12 2014 12:10:09
_STATISTICS_WRITING_DATE_UT : 2015-02-07 06:37:04
_STATISTICS_TAGS : BPS DURATION NUMBER_OF_FRAMES NUMBER_OF_BYTES
Audio #1
ID : 2
Format : AC-3
Format/Info : Audio Coding 3
Mode extension : CM (complete main)
Format settings, Endianness : Big
Codec ID : A_AC3
Duration : 1h 40mn
Bit rate mode : Constant
Bit rate : 192 Kbps
Channel(s) : 2 channels
Channel positions : Front: L R
Sampling rate : 48.0 KHz
Bit depth : 16 bits
Compression mode : Lossy
Stream size : 138 MiB (2%)
Title : Профессиональный (многоголосый, закадровый) Варус Видео
Language : Russian
Default : Yes
Forced : No
Audio #2
ID : 3
Format : AC-3
Format/Info : Audio Coding 3
Mode extension : CM (complete main)
Format settings, Endianness : Big
Codec ID : A_AC3
Duration : 1h 40mn
Bit rate mode : Constant
Bit rate : 192 Kbps
Channel(s) : 2 channels
Channel positions : Front: L R
Sampling rate : 48.0 KHz
Bit depth : 16 bits
Compression mode : Lossy
Stream size : 138 MiB (2%)
Title : Профессиональный (двухголосый, закадровый) НТВ
Language : Russian
Default : No
Forced : No
Audio #3
ID : 4
Format : AC-3
Format/Info : Audio Coding 3
Mode extension : CM (complete main)
Format settings, Endianness : Big
Codec ID : A_AC3
Duration : 1h 40mn
Bit rate mode : Constant
Bit rate : 192 Kbps
Channel(s) : 2 channels
Channel positions : Front: L R
Sampling rate : 48.0 KHz
Bit depth : 16 bits
Compression mode : Lossy
Stream size : 138 MiB (2%)
Title : Авторский (одноголосый, закадровый) Андрей Гаврилов
Language : Russian
Default : No
Forced : No
Audio #4
ID : 5
Format : DTS
Format/Info : Digital Theater Systems
Mode : 16
Format settings, Endianness : Big
Codec ID : A_DTS
Duration : 1h 40mn
Bit rate mode : Constant
Bit rate : 1 509 Kbps
Channel(s) : 6 channels
Channel positions : Front: L C R, Side: L R, LFE
Sampling rate : 48.0 KHz
Bit depth : 24 bits
Compression mode : Lossy
Stream size : 1.06 GiB (13%)
Title : Original
Language : English
Default : No
Forced : No
Text
ID : 6
Format : UTF-8
Codec ID : S_TEXT/UTF8
Codec ID/Info : UTF-8 Plain Text
Title : English
Language : English
Default : No
Forced : No
Menu
00:00:00.000 : en:00:00:00.000
00:02:36.114 : en:00:02:36.114
00:03:10.941 : en:00:03:10.941
00:07:10.430 : en:00:07:10.430
00:10:14.531 : en:00:10:14.531
00:14:29.243 : en:00:14:29.243
00:18:02.331 : en:00:18:02.331
00:20:41.115 : en:00:20:41.115
00:22:48.534 : en:00:22:48.534
00:25:30.696 : en:00:25:30.696
00:29:09.581 : en:00:29:09.581
00:31:57.541 : en:00:31:57.541
00:34:04.125 : en:00:34:04.125
00:35:53.151 : en:00:35:53.151
00:37:38.548 : en:00:37:38.548
00:39:47.635 : en:00:39:47.635
00:43:15.927 : en:00:43:15.927
00:48:22.024 : en:00:48:22.024
00:53:46.014 : en:00:53:46.014
00:58:29.506 : en:00:58:29.506
01:01:53.293 : en:01:01:53.293
01:03:51.953 : en:01:03:51.953
01:07:37.845 : en:01:07:37.845
01:10:48.327 : en:01:10:48.327
01:13:16.475 : en:01:13:16.475
01:15:33.988 : en:01:15:33.988
01:16:56.445 : en:01:16:56.445
01:22:31.155 : en:01:22:31.155
01:26:25.222 : en:01:26:25.222
01:28:03.695 : en:01:28:03.695
01:30:09.487 : en:01:30:09.487
01:32:48.271 : en:01:32:48.271
01:34:38.923 : en:01:34:38.923
01:35:29.724 : en:01:35:29.724
----
[Профиль] [ЛС]
Кто просматривает тему:

Показать сообщения:    

Текущее время: Сегодня 09:07

Часовой пояс: GMT



Вы не можете начинать темы
Вы не можете отвечать на сообщения
Вы не можете редактировать свои сообщения
Вы не можете удалять свои сообщения
Вы не можете голосовать в опросах
Вы не можете прикреплять файлы к сообщениям
Вы не можете скачивать файлы