Ну, погоди! (1-3 телевыпуски) (Ю. Бутырин) [1980-1981, мультфильм, SATRip]

 
Автор Сообщение

TorrentFilm ®

Пол:

Стаж: 2 года 6 месяцев

Сообщений: 7773



Награды: Нет

Торрент-статистика

Создавать темы 05-Июн-2015 00:04

[Цитировать]

Ну, погоди! (1-3 телевыпуски)
Страна: СССР
Жанр: мультфильм
Продолжительность: 00:13:24
Год выпуска: 1980-1981
Русские субтитры: нет
Режиссёр: Ю. Бутырин
Роли озвучивали: В. Ферапонтов, К. Румянова
Описание: Неофициальные выпуски о приключениях Волка и Зайца
Первый телевыпуск: Волк и Заяц смотрят телевизор, где показывают купающегося моржа. Волк решает сам искупаться и идёт к проруби, не забыв прихватить с собой электрокипятильник...
Второй телевыпуск: Волк и Заяц смотрят телевизор, где показывают резвящихся под ёлочкой зайчат. Волк собирается на охоту...
Третий телевыпуск: Волк и Заяц смотрят телевизор, где показывают красивую и богатую Волчицу. Волк собирается к ней подкатить...
Доп. информация: Особенностью данной раздачи является отсутствие каких-либо логотипов. Видеоряд представляет собой комбинацию кадров из разных источников.
Качество: DVB
Формат: MPEG
Видео: MPEG2, 720x576, 25 fps, ~7000 kbps (PAL, 4:3)
Аудио: AC3, 48000, ~192kbps
Субтитры: отсутствуют

Подробные технические данные

Телевыпуск 1

Общее
Полное имя : Телевыпуск 1 (Зимнее плавание).mpg
Формат : MPEG-PS
Размер файла : 258 Мбайт
Продолжительность : 5 м. 20 с.
Режим общего битрейта : Переменный
Общий поток : 6773 Кбит/сек
Видео
Идентификатор : 224 (0xE0)
Формат : MPEG Video
Версия формата : Version 2
Профиль формата : Main@Main
Параметр BVOP формата : Нет
Параметр матрицы формата : По умолчанию
Параметр GOP формата : N=12
Продолжительность : 5 м. 20 с.
Вид битрейта : Переменный
Битрейт : 6446 Кбит/сек
Максимальный битрейт : 9800 Кбит/сек
Ширина : 720 пикселей
Высота : 576 пикселей
Соотношение сторон : 4:3
Частота кадров : 25,000 кадров/сек
Стандарт вещания : PAL
Цветовое пространство : YUV
Субдискретизация насыщенности : 4:2:0
Битовая глубина : 8 бит
Тип развёртки : Прогрессивная
Метод сжатия : С потерями
Бит/(Пиксели*Кадры) : 0.622
Временной код первого кадра : 00:00:00:00
Оригинал временного кода : Group of pictures header
GOP, открыто/закрыто : Открыто
Размер потока : 246 Мбайт (95%)
Аудио
Идентификатор : 189 (0xBD)-128 (0x80)
Формат : AC-3
Формат/Информация : Audio Coding 3
Расширение режима : CM (complete main)
Параметр Endianness формата : Big
Режим смешивания : DVD-Video
Продолжительность : 5 м. 19 с.
Вид битрейта : Постоянный
Битрейт : 192 Кбит/сек
Каналы : 2 канала
Расположение каналов : Front: L R
Частота : 48,0 КГц
Метод сжатия : С потерями
Размер потока : 7,32 Мбайт (3%)
Меню

Телевыпуск 2

Общее
Полное имя : Телевыпуск 2 (Охота).mpg
Формат : MPEG-PS
Размер файла : 196 Мбайт
Продолжительность : 3 м. 35 с.
Режим общего битрейта : Переменный
Общий поток : 7616 Кбит/сек
Видео
Идентификатор : 224 (0xE0)
Формат : MPEG Video
Версия формата : Version 2
Профиль формата : Main@Main
Параметр BVOP формата : Нет
Параметр матрицы формата : По умолчанию
Параметр GOP формата : N=12
Продолжительность : 3 м. 35 с.
Вид битрейта : Переменный
Битрейт : 7272 Кбит/сек
Максимальный битрейт : 9800 Кбит/сек
Ширина : 720 пикселей
Высота : 576 пикселей
Соотношение сторон : 4:3
Частота кадров : 25,000 кадров/сек
Стандарт вещания : PAL
Цветовое пространство : YUV
Субдискретизация насыщенности : 4:2:0
Битовая глубина : 8 бит
Тип развёртки : Прогрессивная
Метод сжатия : С потерями
Бит/(Пиксели*Кадры) : 0.701
Временной код первого кадра : 00:00:00:00
Оригинал временного кода : Group of pictures header
GOP, открыто/закрыто : Открыто
Размер потока : 187 Мбайт (95%)
Аудио
Идентификатор : 189 (0xBD)-128 (0x80)
Формат : AC-3
Формат/Информация : Audio Coding 3
Расширение режима : CM (complete main)
Параметр Endianness формата : Big
Режим смешивания : DVD-Video
Продолжительность : 3 м. 35 с.
Вид битрейта : Постоянный
Битрейт : 192 Кбит/сек
Каналы : 2 канала
Расположение каналов : Front: L R
Частота : 48,0 КГц
Метод сжатия : С потерями
Размер потока : 4,94 Мбайт (3%)
Меню

Телевыпуск 3

Общее
Полное имя : Телевыпуск 3 (Свидание).mpg
Формат : MPEG-PS
Размер файла : 252 Мбайт
Продолжительность : 4 м. 30 с.
Режим общего битрейта : Переменный
Общий поток : 7803 Кбит/сек
Видео
Идентификатор : 224 (0xE0)
Формат : MPEG Video
Версия формата : Version 2
Профиль формата : Main@Main
Параметр BVOP формата : Нет
Параметр матрицы формата : По умолчанию
Параметр GOP формата : N=12
Продолжительность : 4 м. 30 с.
Вид битрейта : Переменный
Битрейт : 7456 Кбит/сек
Максимальный битрейт : 9800 Кбит/сек
Ширина : 720 пикселей
Высота : 576 пикселей
Соотношение сторон : 4:3
Частота кадров : 25,000 кадров/сек
Стандарт вещания : PAL
Цветовое пространство : YUV
Субдискретизация насыщенности : 4:2:0
Битовая глубина : 8 бит
Тип развёртки : Прогрессивная
Метод сжатия : С потерями
Бит/(Пиксели*Кадры) : 0.719
Временной код первого кадра : 00:00:00:00
Оригинал временного кода : Group of pictures header
GOP, открыто/закрыто : Открыто
Размер потока : 240 Мбайт (95%)
Аудио
Идентификатор : 189 (0xBD)-128 (0x80)
Формат : AC-3
Формат/Информация : Audio Coding 3
Расширение режима : CM (complete main)
Параметр Endianness формата : Big
Режим смешивания : DVD-Video
Продолжительность : 4 м. 30 с.
Вид битрейта : Постоянный
Битрейт : 192 Кбит/сек
Каналы : 2 канала
Расположение каналов : Front: L R
Частота : 48,0 КГц
Метод сжатия : С потерями
Размер потока : 6,20 Мбайт (2%)
Меню

СкриншотыТелевыпуск 1



Телевыпуск 2



Телевыпуск 3



--
[Профиль] [ЛС]
Кто просматривает тему:

Показать сообщения:    

Текущее время: Сегодня 14:35

Часовой пояс: GMT



Вы не можете начинать темы
Вы не можете отвечать на сообщения
Вы не можете редактировать свои сообщения
Вы не можете удалять свои сообщения
Вы не можете голосовать в опросах
Вы не можете прикреплять файлы к сообщениям
Вы не можете скачивать файлы