Ну, погоди! [01-16 из 16] (1969) BDRip-AVC от R.G. HD-Films | 60 fps

 
Автор Сообщение

sergej644 ®

Пол:

Стаж: 4 года 11 месяцев

Сообщений: 6035

Откуда: Soviet Union



Награды: Нет

Торрент-статистика

Создавать темы 07-Июл-2015 22:11

[Цитировать]

-Название: Ну, погоди! (сериал)
Год выпуска: 1969
Страна: СССР
Жанр: мультфильм, комедия, семейный, приключения
Продолжительность: ~00:09:00
Перевод: Оригинальный-Режиссер: Вячеслав Котёночкин, Юрий Бутырин, Владимир Тарасов-В ролях: Клара Румянова (Заяц, озвучка), Анатолий Папанов (Волк, озвучка), Геннадий Хазанов (озвучка), Владимир Сошальский (Бегемот, озвучка), Игорь Христенко (озвучка)-Описание:
Веселые приключения неразлучной парочки - хулигана Волка и смышленого Зайца. Любимые с детства сцены погонь, ссор и примирений, шутки и мелодии.-Рейтинг

imdb.com: 9.00 (2550)-Качество: BDRip-AVC 60fps
Формат: MKV
Видео кодек: AVC
Аудио кодек:AC3
Видео: AVC, 752x576 (4:3), 3260 kbps, 60 fps, 0,125 bpp
Аудио: русский / AC3 / 1 / 48 kHz / 640 kbps / 16 bit
Навигация по главам: есть- -

MI

General
Unique ID : 217095934610155673877550129072000791557 (0xA35327F7F1209C96B82475096C6CF405)
Format : Matroska
Format version : Version 4 / Version 2
File size : 273 MiB
Duration : 9mn 34s
Overall bit rate : 3 980 Kbps
Movie name : Tiberiumsun69
Encoded date : UTC 2015-07-07 13:14:48
Writing application : mkvmerge v7.9.0 ('Birds') 64bit
Writing library : libebml v1.3.1 + libmatroska v1.4.2
Attachment : Yes
Video
ID : 1
Format : AVC
Format/Info : Advanced Video Codec
Format profile : High@L4.1
Format settings, CABAC : Yes
Format settings, ReFrames : 4 frames
Codec ID : V_MPEG4/ISO/AVC
Duration : 9mn 34s
Bit rate : 3 261 Kbps
Width : 752 pixels
Height : 576 pixels
Display aspect ratio : 4:3
Frame rate : 60.000 fps
Color space : YUV
Chroma subsampling : 4:2:0
Bit depth : 8 bits
Scan type : Progressive
Bits/(Pixel*Frame) : 0.125
Stream size : 223 MiB (82%)
Title : Tiberiumsun69
Language : English
Default : Yes
Forced : No
Audio
ID : 2
Format : AC-3
Format/Info : Audio Coding 3
Mode extension : CM (complete main)
Codec ID : A_AC3
Duration : 9mn 34s
Bit rate mode : Constant
Bit rate : 640 Kbps
Channel(s) : 1 channel
Channel positions : Front: C
Sampling rate : 48.0 KHz
Bit depth : 16 bits
Compression mode : Lossy
Delay relative to video : 14ms
Stream size : 43.9 MiB (16%)
Title : Оригинал
Language : Russian
Default : No
Forced : No
Menu
00:00:00.000 : en:Chapter 2
00:09:31.670 : en:Chapter 3

Скриншоты

Просьба к переливающим на другие сайты, в оформлении указывайте пожалуйста авторство группы
[Профиль] [ЛС]
Кто просматривает тему:

Форум Тема Автор Размер
Отечественные мультфильмы Ну, погоди! (1-3 телевыпуски) (Ю. Бутырин) [1980-1981, мультфильм, SATRip] TorrentFilm 706 MB
Мультфильмы СССР Ну, погоди! (1969-1986) BDRip-AVC | iPad Белочка 3.95 GB
Мультфильмы СССР Ну, погоди! (Выпуски 1-20 из 20) (Вячеслав Котеночкин) [1969 - 2006 г., Анатолий Папанов, Клара Румянова, Игорь Христенко, Ольга Зверева, DVDRip] достали все 2.9 GB
Отечественные мультфильмы Ну, погоди! 18-й выпуск (Владимир Тарасов, Вячеслав Котеночкин) [1993, мультфильм, комедия, семейный, DVB] painkiller 288 MB
Мультфильмы СССР Ну, погоди! [01-20 из 20] + бонус (1969-2006) DVDRip от MediaClub | КПК Белочка 1.05 GB
Мультфильмы СССР Ну, погоди! [01-25 из 25] (1969-2006) DVD5 Белочка 4.36 GB
Отечественные мультфильмы Ну, погоди! Выпуски 19-20 (Алексей Котеночкин) [2006 г., Мультфильм, DVDRip-AVC] TorrentFilm 367 MB
Отечественные мультфильмы Ну, погоди! Выпуски 19-20 (Алексей Котеночкин) [2006 г., Мультфильм, DVDRip] painkiller 406 MB
Показать сообщения:    

Текущее время: Сегодня 11:55

Часовой пояс: GMT



Вы не можете начинать темы
Вы не можете отвечать на сообщения
Вы не можете редактировать свои сообщения
Вы не можете удалять свои сообщения
Вы не можете голосовать в опросах
Вы не можете прикреплять файлы к сообщениям
Вы не можете скачивать файлы