Ну, погоди! Выпуски 19-20 (Алексей Котеночкин) [2006 г., Мультфильм, DVDRip-AVC]

 
Автор Сообщение

TorrentFilm ®

Пол:

Стаж: 1 год 11 месяцев

Сообщений: 7741



Награды: Нет

Торрент-статистика

Создавать темы 04-Янв-2016 00:02

[Цитировать]

Ну, погоди! Выпуски 19-20
Страна: Россия
Жанр: Мультфильм
Продолжительность: 00:10:59 + 00:10:53
Год выпуска: 2006
Русские субтитры: нет
Режиссёр: Алексей Котёночкин
Описание:
19-й выпуск
На курорте
20-й выпуск
На даче
Качество: DVDRip-AVC
Видео:
19-й выпуск: 698x566 (4:3) @ 746x566, 25.000 fps, AVC, ~1780 Kbps, 0.180 bits/pixel
20-й выпуск: 700x574 (4:3) @ 748x574, 25.000 fps, AVC, ~2430 Kbps, 0.242 bits/pixel
Аудио: 48 kHz, AC3 Dolby Digital, 2/0 (L,R) ch, ~192 kbps
Субтитры: отсутствуют

Состав и описание

«НУ, ПОГОДИ! (Выпуск 19)», 2006 г., 00:10:59, 698x566 (4:3) @ 746x566 ~1780 kbps
Действие фильма происходит на курорте
«НУ, ПОГОДИ! (Выпуск 20)», 2006 г., 00:10:53, 700x574 (4:3) @ 748x574 ~2430 kbps
Действия фильма происходит на даче

Подробные технические данные

19

General
Unique ID : 203399935869238458128971679673909039025 (0x9905671881DB369F891323D8D910CFB1)
Complete name : D:\Nu\Ну погоди 19.mkv
Format : Matroska
Format version : Version 4 / Version 2
File size : 158 MiB
Duration : 10mn 59s
Overall bit rate : 2 012 Kbps
Movie name : Nu pogodi 19.mkv by Nyc-2008
Encoded date : UTC 2014-01-16 16:09:44
Writing application : mkvmerge v6.7.0 ('Back to the Ground') 32bit built on Jan 8 2014 15:03:17
Writing library : libebml v1.3.0 + libmatroska v1.4.1
Video
ID : 1
Format : AVC
Format/Info : Advanced Video Codec
Format profile : High@L4.0
Format settings, CABAC : Yes
Format settings, ReFrames : 16 frames
Codec ID : V_MPEG4/ISO/AVC
Duration : 10mn 59s
Bit rate : 1 780 Kbps
Width : 698 pixels
Height : 566 pixels
Display aspect ratio : 4:3
Original display aspect ratio : 4:3
Frame rate mode : Constant
Frame rate : 25.000 fps
Color space : YUV
Chroma subsampling : 4:2:0
Bit depth : 8 bits
Scan type : Progressive
Bits/(Pixel*Frame) : 0.180
Stream size : 140 MiB (88%)
Writing library : x264 core 140 r2377kMod 1ca7bb9
Encoding settings : cabac=1 / ref=16 / deblock=1:-3:-3 / analyse=0x3:0x113 / me=umh / subme=10 / psy=1 / fade_compensate=0.00 / psy_rd=1.00:0.00 / mixed_ref=1 / me_range=24 / chroma_me=1 / trellis=2 / 8x8dct=1 / cqm=0 / deadzone=21,11 / fast_pskip=0 / chroma_qp_offset=-2 / threads=6 / lookahead_threads=1 / sliced_threads=0 / nr=0 / decimate=1 / interlaced=0 / bluray_compat=0 / constrained_intra=0 / fgo=0 / bframes=16 / b_pyramid=2 / b_adapt=2 / b_bias=0 / direct=1 / weightb=1 / open_gop=0 / weightp=2 / keyint=250 / keyint_min=25 / scenecut=40 / intra_refresh=0 / rc_lookahead=60 / rc=crf / mbtree=1 / crf=16.9900 / qcomp=0.60 / qpmin=0 / qpmax=69 / qpstep=4 / ip_ratio=1.40 / aq=1:1.00
Language : Russian
Default : Yes
Forced : No
Audio
ID : 2
Format : AC-3
Format/Info : Audio Coding 3
Mode extension : CM (complete main)
Format settings, Endianness : Big
Codec ID : A_AC3
Duration : 10mn 59s
Bit rate mode : Constant
Bit rate : 192 Kbps
Channel count : 2 channels
Channel positions : Front: L R
Sampling rate : 48.0 KHz
Bit depth : 16 bits
Compression mode : Lossy
Delay relative to video : 15ms
Stream size : 15.1 MiB (10%)
Language : Russian
Default : Yes
Forced : No

20

[pre]General
Unique ID : 194988459618823902158416718437640064939 (0x92B1694C336E0E7A8B6E5FF72D5C4FAB)
Complete name : D:\Nu\Ну погоди 20.mkv
Format : Matroska
Format version : Version 4 / Version 2
File size : 208 MiB
Duration : 10mn 53s
Overall bit rate : 2 676 Kbps
Movie name : Nu pogodi 20.mkv by Nyc-2008
Encoded date : UTC 2014-01-16 16:08:57
Writing application : mkvmerge v6.7.0 ('Back to the Ground') 32bit built on Jan 8 2014 15:03:17
Writing library : libebml v1.3.0 + libmatroska v1.4.1
Video
ID : 1
Format : AVC
Format/Info : Advanced Video Codec
Format profile : High@L4.0
Format settings, CABAC : Yes
Format settings, ReFrames : 16 frames
Codec ID : V_MPEG4/ISO/AVC
Duration : 10mn 53s
Bit rate : 2 430 Kbps
Width : 700 pixels
Height : 574 pixels
Display aspect ratio : 4:3
Frame rate mode : Constant
Frame rate : 25.000 fps
Color space : YUV
Chroma subsampling : 4:2:0
Bit depth : 8 bits
Scan type : Progressive
Bits/(Pixel*Frame) : 0.242
Stream size : 189 MiB (91%)
Writing library : x264 core 140 r2377kMod 1ca7bb9
Encoding settings : cabac=1 / ref=16 / deblock=1:-3:-3 / analyse=0x3:0x113 / me=umh / subme=10 / psy=1 / fade_compensate=0.00 / psy_rd=1.00:0.00 / mixed_ref=1 / me_range=24 / chroma_me=1 / trellis=2 / 8x8dct=1 / cqm=0 / deadzone=21,11 / fast_pskip=0 / chroma_qp_offset=-2 / threads=6 / lookahead_threads=1 / sliced_threads=0 / nr=0 / decimate=1 / interlaced=0 / bluray_compat=0 / constrained_intra=0 / fgo=0 / bframes=16 / b_pyramid=2 / b_adapt=2 / b_bias=0 / direct=1 / weightb=1 / open_gop=0 / weightp=2 / keyint=250 / keyint_min=25 / scenecut=40 / intra_refresh=0 / rc_lookahead=60 / rc=crf / mbtree=1 / crf=18.6900 / qcomp=0.60 / qpmin=0 / qpmax=69 / qpstep=4 / ip_ratio=1.40 / aq=1:1.00
Language : Russian
Default : Yes
Forced : No
Audio
ID : 2
Format : AC-3
Format/Info : Audio Coding 3
Mode extension : CM (complete main)
Format settings, Endianness : Big
Codec ID : A_AC3
Duration : 10mn 53s
Bit rate mode : Constant
Bit rate : 192 Kbps
Channel(s) : 2 channels
Channel positions : Front: L R
Sampling rate : 48.0 KHz
Bit depth : 16 bits
Compression mode : Lossy
Delay relative to video : 15ms
Stream size : 14.9 MiB (7%)
Language : Russian
Default : Yes
Forced : No

Скриншоты19

[Профиль] [ЛС]
Кто просматривает тему:

Форум Тема Автор Размер
Отечественные мультфильмы Ну, погоди! (1-3 телевыпуски) (Ю. Бутырин) [1980-1981, мультфильм, SATRip] TorrentFilm 706 MB
Мультфильмы СССР Ну, погоди! (1969-1986) BDRip-AVC | iPad Белочка 3.95 GB
Мультфильмы СССР Ну, погоди! (Выпуски 1-20 из 20) (Вячеслав Котеночкин) [1969 - 2006 г., Анатолий Папанов, Клара Румянова, Игорь Христенко, Ольга Зверева, DVDRip] достали все 2.9 GB
Отечественные мультфильмы Ну, погоди! 18-й выпуск (Владимир Тарасов, Вячеслав Котеночкин) [1993, мультфильм, комедия, семейный, DVB] painkiller 288 MB
Отечественные мультсериалы Ну, погоди! [01-16 из 16] (1969) BDRip-AVC от R.G. HD-Films | 60 fps sergej644 4.96 GB
Мультфильмы СССР Ну, погоди! [01-20 из 20] + бонус (1969-2006) DVDRip от MediaClub | КПК Белочка 1.05 GB
Мультфильмы СССР Ну, погоди! [01-25 из 25] (1969-2006) DVD5 Белочка 4.36 GB
Отечественные мультфильмы Ну, погоди! Выпуски 19-20 (Алексей Котеночкин) [2006 г., Мультфильм, DVDRip] painkiller 406 MB
Показать сообщения:    

Текущее время: Сегодня 14:00

Часовой пояс: GMT



Вы не можете начинать темы
Вы не можете отвечать на сообщения
Вы не можете редактировать свои сообщения
Вы не можете удалять свои сообщения
Вы не можете голосовать в опросах
Вы не можете прикреплять файлы к сообщениям
Вы не можете скачивать файлы