Нулевая терпимость / Zero Tolerance (2015) WEB-DL 1080p | L2

 
Автор Сообщение

BOSS ®

Пол:

Стаж: 2 года 1 месяц

Сообщений: 3735

Откуда: ODESSA



Награды: 20 (Подробнее)

Top Keeper 2 (Количество: 1) Top Keeper 1 (Количество: 1) Top Keeper 4 (Количество: 1)
Торрент-статистика

Создавать темы 05-Дек-2015 09:43

[Цитировать]

Информация о фильме
Название: Нулевая терпимость
Оригинальное название: Zero Tolerance
Год выхода: 2015
Жанр: Боевик, триллер, криминал
Режиссер: Вич Каосаянанда
В ролях: Дастин Нгуен, Скотт Эдкинс, Сахайак Бунсанакит, Гэри Дэниелс, Принья Интачай, Кейн Косуги, Ammy Chanicha, Стивен Кларк, Натали Лоренс, Yuhkoh Matsuguchi
О фильме:
Бескорыстная дружба мужская лучше всего закаляется в огне. Отставников-спецназовцев Джонни и Питера объединяют теперь не только бои и испытания в горячих точках в прошлом, но и общее горе в настоящем - погибла дочь Питера, красавица Анджел. Обезумевшему от ярости отцу удается напасть на след убийц, но те , оказывается, уже в Таиланде - прибежище акул преступного мира. Криминальные авторитеты вовсе не собираются молча наблюдать, как двое чужаков наводят у них в городе свои порядки и собираются доступными им методами показать Джонни и Питеру, кто хозяин в Бангкоке. Правда, они не учли одного - военные с нулевой терпимостью к врагам никогда не бывают бывшими и для них не бывает непереходимых границ - преступника вояки отыщут хоть под землей. Тех, кто вздумал встать у них на пути, не спасет уже ни Бог, ни сам дьявол.

Страна: Таиланд
Студия: Zero Tolerance Films
Продолжительность: 01:29:00
Перевод: Любительский (двухголосый) [Parovoz Production]
Файл
Кодек: h.264
Качество: WEB-DL 1080p
Видео: 1920x1078 пикселей, 4807 Кбит/с, 24.000 кадра(ов)/сек
Звук:
Audio #1: Русский, AC-3, 2.0 канала(ов, 192 кбит/сек, 48.0 кГц
Audio #2: Английский, AC-3, 5.1 канала(ов), 384 кбит/сек, 48.0 кГц
Субтитры: Русские, UTF-8
Семпл

Media Info

Format : Matroska
Format version : Version 4 / Version 2
File size : 3.37 GiB
Duration : 1h 29mn
Overall bit rate mode : Variable
Overall bit rate : 5 374 Kbps
Movie name : www.HoundDawgs.org
Encoded date : UTC 2015-12-01 15:00:08
Writing application : mkvmerge v8.6.1 ('Flying') 64bit
Writing library : libebml v1.3.3 + libmatroska v1.4.4
Video
ID : 1
Format : AVC
Format/Info : Advanced Video Codec
Format profile : Main@L3.1
Format settings, CABAC : Yes
Format settings, ReFrames : 2 frames
Codec ID : V_MPEG4/ISO/AVC
Duration : 1h 29mn
Bit rate mode : Variable
Bit rate : 4 807 Kbps
Maximum bit rate : 14.0 Mbps
Width : 1 920 pixels
Height : 1 078 pixels
Display aspect ratio : 16:9
Frame rate mode : Constant
Frame rate : 24.000 fps
Color space : YUV
Chroma subsampling : 4:2:0
Bit depth : 8 bits
Scan type : Progressive
Bits/(Pixel*Frame) : 0.097
Stream size : 3.01 GiB (89%)
Title : Nu1eVayA.3eR5im0sT.2015.WEB-DL.720p.ELEKTRI4KA.uniongang.tv
Writing library : x264 core 146 r2538 121396c
Encoding settings : cabac=1 / ref=11 / deblock=1:-1:-1 / analyse=0x3:0x112 / me=umh / subme=9 / psy=1 / psy_rd=1.00:1.00 / mixed_ref=0 / me_range=16 / chroma_me=1 / trellis=1 / 8x8dct=1 / cqm=0 / deadzone=21,11 / fast_pskip=1 / chroma_qp_offset=-4 / threads=6 / lookahead_threads=1 / sliced_threads=0 / nr=0 / decimate=1 / interlaced=0 / bluray_compat=0 / constrained_intra=0 / bframes=10 / b_pyramid=2 / b_adapt=2 / b_bias=6 / direct=3 / weightb=0 / open_gop=0 / weightp=1 / keyint=239 / keyint_min=23 / scenecut=49 / intra_refresh=0 / rc_lookahead=40 / rc=2pass / mbtree=1 / bitrate=1950 / ratetol=1.0 / qcomp=0.80 / qpmin=4 / qpmax=69 / qpstep=10 / cplxblur=20.0 / qblur=0.5 / ip_ratio=1.00 / aq=3:1.00
Language : English
Default : Yes
Forced : No
Audio #1
ID : 2
Format : AC-3
Format/Info : Audio Coding 3
Mode extension : CM (complete main)
Format settings, Endianness : Big
Codec ID : A_AC3
Duration : 1h 29mn
Bit rate mode : Constant
Bit rate : 192 Kbps
Channel(s) : 2 channels
Channel positions : Front: L R
Sampling rate : 48.0 KHz
Frame rate : 31.250 fps (1536 spf)
Compression mode : Lossy
Stream size : 123 MiB (4%)
Title : Nu1eVayA.3eR5im0sT.2015.WEB-DL.720p.ELEKTRI4KA.uniongang.tv
Language : Russian
Default : Yes
Forced : No
Audio #2
ID : 3
Format : AC-3
Format/Info : Audio Coding 3
Mode extension : CM (complete main)
Format settings, Endianness : Big
Codec ID : A_AC3
Duration : 1h 29mn
Bit rate mode : Constant
Bit rate : 384 Kbps
Channel(s) : 6 channels
Channel positions : Front: L C R, Side: L R, LFE
Sampling rate : 48.0 KHz
Frame rate : 31.250 fps (1536 spf)
Compression mode : Lossy
Stream size : 247 MiB (7%)
Title : Nu1eVayA.3eR5im0sT.2015.WEB-DL.720p.ELEKTRI4KA.uniongang.tv
Language : English
Default : No
Forced : No
Text
ID : 4
Format : UTF-8
Codec ID : S_TEXT/UTF8
Codec ID/Info : UTF-8 Plain Text
Duration : 1h 16mn
Bit rate : 0 bps
Count of elements : 2
Stream size : 208 Bytes (0%)
Title : Nu1eVayA.3eR5im0sT.2015.WEB-DL.720p.ELEKTRI4KA.uniongang.tv
Language : Russian
Default : Yes
Forced : Yes

Скриншоты

[Профиль] [ЛС]
Показать сообщения:    

Текущее время: Сегодня 10:06

Часовой пояс: GMT



Вы не можете начинать темы
Вы не можете отвечать на сообщения
Вы не можете редактировать свои сообщения
Вы не можете удалять свои сообщения
Вы не можете голосовать в опросах
Вы не можете прикреплять файлы к сообщениям
Вы не можете скачивать файлы