Нулевая терпимость / Zero Tolerance (2015) WEB-DL 720p | L2

 
Автор Сообщение

достали все ®

Пол:

Стаж: 1 год 8 месяцев

Сообщений: 6527



Награды: 12 (Подробнее)

Mega Releaser 3 (Количество: 1) Mega Releaser 2 (Количество: 1) Top Releaser 3 (Количество: 1)
Торрент-статистика

Создавать темы 02-Дек-2015 05:05

[Цитировать]

Информация о фильме
Название: Нулевая терпимость
Оригинальное название: Zero Tolerance
Год выхода: 2015
Жанр: боевик, триллер, криминал
Режиссер: Вич Каосаянанда
В ролях: Дастин Нгуен, Скотт Эдкинс, Сахайак Бунсанакит, Гэри Дэниелс, Принья Интачай, Кейн Косуги, Ammy Chanicha, Стивен Кларк, Натали Лоренс, Yuhkoh Matsuguchi
О фильме: Два бывших военизированных сотрудника, Джонни и его полицейский друг детектив Питер, приезжают в Бангкок, чтобы найти убийц красивой дочери Джонни Анджел…

Выпущено: Таиланд
Продолжительность: 01:29:54
Озвучивание: Любительское (двухголосое) [Parovoz Production]
Файл
Формат: MKV
Качество: WEB-DL 720p
Видео: MPEG-4 AVC, 3829 kb/s, 1280x718
Аудио: Russian: AC3, 192 kb/s (2 ch) / English: AC3, 384 kb/s (6 ch)

MI

Format : Matroska
Format version : Version 2
File size : 2.82 GiB
Duration : 1h 29mn
Overall bit rate : 4 494 Kbps
Encoded date : UTC 2015-12-01 21:07:51
Writing application : mkvmerge v7.8.0 ('River Man') 32bit built on Apr 3 2015 12:11:22
Writing library : libebml v1.3.1 + libmatroska v1.4.2
Video
ID : 1
Format : AVC
Format/Info : Advanced Video Codec
Format profile : High@L3.1
Format settings, CABAC : No
Format settings, ReFrames : 2 frames
Codec ID : V_MPEG4/ISO/AVC
Duration : 1h 29mn
Bit rate : 3 829 Kbps
Width : 1 280 pixels
Height : 718 pixels
Display aspect ratio : 16:9
Frame rate mode : Constant
Frame rate : 24.000 fps
Color space : YUV
Chroma subsampling : 4:2:0
Bit depth : 8 bits
Scan type : Progressive
Bits/(Pixel*Frame) : 0.174
Stream size : 2.40 GiB (85%)
Language : English
Default : Yes
Forced : No
Color range : Limited
Color primaries : BT.709
Transfer characteristics : BT.709
Matrix coefficients : BT.709
Audio #1
ID : 2
Format : AC-3
Format/Info : Audio Coding 3
Mode extension : CM (complete main)
Format settings, Endianness : Big
Codec ID : A_AC3
Duration : 1h 29mn
Bit rate mode : Constant
Bit rate : 192 Kbps
Channel(s) : 2 channels
Channel positions : Front: L R
Sampling rate : 48.0 KHz
Bit depth : 16 bits
Compression mode : Lossy
Stream size : 123 MiB (4%)
Language : English
Default : Yes
Forced : No
Audio #2
ID : 3
Format : AC-3
Format/Info : Audio Coding 3
Mode extension : CM (complete main)
Format settings, Endianness : Big
Codec ID : A_AC3
Duration : 1h 29mn
Bit rate mode : Constant
Bit rate : 384 Kbps
Channel(s) : 6 channels
Channel positions : Front: L C R, Side: L R, LFE
Sampling rate : 48.0 KHz
Bit depth : 16 bits
Compression mode : Lossy
Stream size : 247 MiB (9%)
Language : English
Default : No
Forced : No
Menu
00:00:00.000 : en:1
00:15:00.000 : en:2
00:30:00.000 : en:3
00:45:00.000 : en:4
01:00:00.000 : en:5
01:15:00.000 : en:6
01:26:27.000 : en:7

Скриншоты



[Профиль] [ЛС]
Показать сообщения:    

Текущее время: Сегодня 02:14

Часовой пояс: GMT



Вы не можете начинать темы
Вы не можете отвечать на сообщения
Вы не можете редактировать свои сообщения
Вы не можете удалять свои сообщения
Вы не можете голосовать в опросах
Вы не можете прикреплять файлы к сообщениям
Вы не можете скачивать файлы