Ноэль / Noel (Чазз Пальминтери / Chazz Palminteri) [2004 г., Мелодрама, драма, рождество, DVDRip] MVO + Original

 
Автор Сообщение

sergej644 ®

Пол:

Стаж: 4 года 11 месяцев

Сообщений: 6040

Откуда: Soviet Union



Награды: Нет

Торрент-статистика

Создавать темы 18-Дек-2014 22:45

[Цитировать]

Ноэль / Noel
«Чудеса в нашей жизни гораздо ближе, чем кажется»
Год выпуска: 2004
Страна: США
Жанр: Мелодрама, драма, рождество
Продолжительность: 01:32:46
Перевод: Профессиональный (многоголосый, закадровый)
Русские субтитры: нет
Режиссер: Чазз Пальминтери / Chazz Palminteri
В ролях: Сьюзен Сарандон, Пенелопа Крус, Робин Уильямс, Пол Уокер, Алан Аркин, Маркус Томас, Сонни Маринелли, Дэниэл Санжата, Чазз Пальминтери....-Описание: Рождество в Нью-Йорке — самое замечательное время года. По всему городу зажигаются тысячи рождественских елок, которые создают ощущение покоя и счастья. Однако для некоторых людей этого мало, они ждут чего-то невероятного, волшебного, чтобы отвлечься от повседневных тягот и забот. Красавица Нина вскоре должна выйти замуж за полицейского Майка, но после очередного припадка ревности девушка уходит от него. Приехав к своим родственникам, она встречается со случайно зашедшей на праздник Розой — сорокалетней издательницей, вынужденной последние десять лет ухаживать за своей больной матерью и поэтому отношения с мужчинами у неё не складываются. Все эти встречи чудесным образом меняют жизни героев...- | | -Качество: DVDRip
Формат: AVI
Видео: 704x528 (1.33:1), 25 fps, XviD build 73 ~2390 kbps avg, 0.26 bit/pixel
Аудио #1:: 48 kHz, AC3 Dolby Digital, 3/2 (L,C,R,l,r) + LFE ch, ~448 kbps (C переводом)
Аудио #2:: 48 kHz, AC3 Dolby Digital, 3/2 (L,C,R,l,r) + LFE ch, ~448 kbps (Английский)
Скриншоты

Отчет MI

General
Complete name                            : Noel.DVDRip_2004_Olu6ka.avi
Format                                   : AVI
Format/Info                              : Audio Video Interleave
Format profile                           : OpenDML
File size                                : 2.14 GiB
Duration                                 : 1h 32mn
Overall bit rate                         : 3 304 Kbps
Writing application                      : VirtualDubModRus 1.5.10.2 (build 2542/release)
Writing library                          : VirtualDubMod build 2542/release
Video
ID                                       : 0
Format                                   : MPEG-4 Visual
Format profile                           : Advanced Simple@L5
Format settings, BVOP                    : 1
Format settings, QPel                    : No
Format settings, GMC                     : No warppoints
Format settings, Matrix                  : Custom
Codec ID                                 : XVID
Codec ID/Hint                            : XviD
Duration                                 : 1h 32mn
Bit rate                                 : 2 390 Kbps
Width                                    : 704 pixels
Height                                   : 528 pixels
Display aspect ratio                     : 4:3
Frame rate                               : 25.000 fps
Color space                              : YUV
Chroma subsampling                       : 4:2:0
Bit depth                                : 8 bits
Scan type                                : Progressive
Compression mode                         : Lossy
Bits/(Pixel*Frame)                       : 0.257
Stream size                              : 1.55 GiB (72%)
Writing library                          : XviD 73
Audio #1
ID                                       : 1
Format                                   : AC-3
Format/Info                              : Audio Coding 3
Mode extension                           : CM (complete main)
Format settings, Endianness              : Big
Codec ID                                 : 2000
Duration                                 : 1h 32mn
Bit rate mode                            : Constant
Bit rate                                 : 448 Kbps
Channel count                            : 6 channels
Channel positions                        : Front: L C R, Side: L R, LFE
Sampling rate                            : 48.0 KHz
Bit depth                                : 16 bits
Compression mode                         : Lossy
Stream size                              : 297 MiB (14%)
Alignment                                : Split accross interleaves
Interleave, duration                     : 40 ms (1.00 video frame)
Interleave, preload duration             : 500 ms
Audio #2
ID                                       : 2
Format                                   : AC-3
Format/Info                              : Audio Coding 3
Mode extension                           : CM (complete main)
Format settings, Endianness              : Big
Codec ID                                 : 2000
Duration                                 : 1h 32mn
Bit rate mode                            : Constant
Bit rate                                 : 448 Kbps
Channel count                            : 6 channels
Channel positions                        : Front: L C R, Side: L R, LFE
Sampling rate                            : 48.0 KHz
Bit depth                                : 16 bits
Compression mode                         : Lossy
Stream size                              : 297 MiB (14%)
Alignment                                : Split accross interleaves
Interleave, duration                     : 40 ms (1.00 video frame)
Interleave, preload duration             : 500 ms
Спасибо Sanctus за исходник!
[Профиль] [ЛС]

Создавать темы 06-Авг-2015 22:54 (спустя 7 месяцев 20 дней)

Топик был перенесен из форума Фильмы до 2014 года в форум Фильмы до 2012 года
sergej644
 
Показать сообщения:    

Текущее время: Сегодня 20:43

Часовой пояс: GMT



Вы не можете начинать темы
Вы не можете отвечать на сообщения
Вы не можете редактировать свои сообщения
Вы не можете удалять свои сообщения
Вы не можете голосовать в опросах
Вы не можете прикреплять файлы к сообщениям
Вы не можете скачивать файлы