Ночь покера / Poker Night (2014) WEB-DLRip-AVC | L1

 
Автор Сообщение

sergej644 ®

Пол:

Стаж: 4 года 11 месяцев

Сообщений: 6041

Откуда: Soviet Union



Награды: Нет

Торрент-статистика

Создавать темы 18-Янв-2015 02:40

[Цитировать]

-- Информация о фильме
Название: Ночь покера
Оригинальное название: Poker Night
Год выхода: 2014
Жанр: боевик, триллер, криминал
Режиссер: Грег Френсис
В ролях: Бо Мирчофф, Рон Перлман, Джанкарло Эспозито, Кори Лардж, Титус Уэлливер, Хелстон Сейдж, Рон Элдард, Майкл Эклунд, Киран Лардж, Локлин Манро
О фильме:
В городке Уорсо, штат Индиана, по традиции опытные детективы устраивают игры в покер, за которыми хвастаются своими самыми поучительными делами перед молодыми коллегами. После одной такой игры главного героя — начинающего детектива Джетера — ждет опыт, которым он сам сможет похвастаться, если, конечно, высвободится из рук маньяка…

Выпущено: Канада, США
Продолжительность: 01:45:02
Озвучивание: Любительское (одноголосое) [Павел Морозов aka PashaUp]
Файл
Формат: MKV
Качество: WEB-DLRip-AVC
Видео: High@L4.1, 1627 kb/s, 960x396
Аудио: AC3, 384 kb/s (6 ch)

M/I

General
Unique ID : 235610115297740001769267270951848378082 (0xB140DB8D53FA0D162DDE0040BDB7FEE2)
Complete name : D:Ночь покера.2014.L1.WEB-DLRip_AVC.[-=DoMiNo=-].mkv
Format : Matroska
Format version : Version 4 / Version 2
File size : 1.51 GiB
Duration : 1h 45mn
Overall bit rate : 2 052 Kbps
Writing application : XviD4PSP 7.0 / 55.48.100
Writing library : XviD4PSP 7.0 / 55.48.100
DATE : -1
COMMENT : MATROSKA,WEBM > MKV / H264 > X264 CRF 18,0 Custom / AC3 > COPY
Video
ID : 1
Format : AVC
Format/Info : Advanced Video Codec
Format profile : High@L4.1
Format settings, CABAC : Yes
Format settings, ReFrames : 12 frames
Codec ID : V_MPEG4/ISO/AVC
Duration : 1h 45mn
Bit rate : 1 627 Kbps
Width : 960 pixels
Height : 396 pixels
Display aspect ratio : 2.40:1
Frame rate mode : Constant
Frame rate : 23.976 fps
Color space : YUV
Chroma subsampling : 4:2:0
Bit depth : 8 bits
Scan type : Progressive
Bits/(Pixel*Frame) : 0.178
Stream size : 1.19 GiB (79%)
Writing library : x264 core 144 r2525M 40bb568
Encoding settings : cabac=1 / ref=12 / deblock=1:-3:-3 / analyse=0x3:0x133 / me=umh / subme=11 / psy=1 / psy_rd=1,00:0,10 / mixed_ref=1 / me_range=32 / chroma_me=1 / trellis=2 / 8x8dct=1 / cqm=0 / deadzone=21,11 / fast_pskip=1 / chroma_qp_offset=-3 / threads=17 / lookahead_threads=3 / sliced_threads=0 / nr=0 / decimate=1 / interlaced=0 / bluray_compat=0 / constrained_intra=0 / bframes=11 / b_pyramid=2 / b_adapt=2 / b_bias=0 / direct=1 / weightb=1 / open_gop=0 / weightp=2 / keyint=230 / keyint_min=23 / scenecut=40 / intra_refresh=0 / rc=crf / mbtree=0 / crf=18,0 / qcomp=0,60 / qpmin=16 / qpmax=69 / qpstep=4 / ip_ratio=1,40 / pb_ratio=1,30 / aq=1:1,00
Language : English
Default : Yes
Forced : No
Color primaries : BT.709
Transfer characteristics : BT.709
Matrix coefficients : BT.709
Color range : Limited
DATE : -1
Audio
ID : 2
Format : AC-3
Format/Info : Audio Coding 3
Mode extension : CM (complete main)
Format settings, Endianness : Big
Codec ID : A_AC3
Duration : 1h 45mn
Bit rate mode : Constant
Bit rate : 384 Kbps
Channel(s) : 6 channels
Channel positions : Front: L C R, Side: L R, LFE
Sampling rate : 48.0 KHz
Bit depth : 16 bits
Compression mode : Lossy
Stream size : 289 MiB (19%)
Language : Russian
Default : Yes
Forced : No
DATE : -1
Menu
00:00:00.000 : :Wisdom
00:04:51.000 : :Abducted
00:11:20.000 : :“You Against Usâ€
00:19:24.000 : :Monsters
00:26:35.000 : :Amy
00:30:54.000 : :Investigation
00:35:27.000 : :“The Big Momentâ€
00:42:09.000 : :“The Driveâ€
00:49:12.000 : :Crazy Glue
00:55:11.000 : :“Call Your Familyâ€
01:00:57.000 : :Undercover
01:07:57.000 : :“Rough Day at Workâ€
01:13:13.000 : :Gun Pulled
01:18:45.000 : :“Hey Dadâ€
01:28:25.000 : :Escape
01:36:40.000 : :Things Change
----
[Профиль] [ЛС]
Кто просматривает тему:

Показать сообщения:    

Текущее время: Сегодня 08:33

Часовой пояс: GMT



Вы не можете начинать темы
Вы не можете отвечать на сообщения
Вы не можете редактировать свои сообщения
Вы не можете удалять свои сообщения
Вы не можете голосовать в опросах
Вы не можете прикреплять файлы к сообщениям
Вы не можете скачивать файлы