Ночь на Земле / Night on Earth (1991) BDRip 720p by msltel | P, A

 
Автор Сообщение

sergej644 ®

Пол:

Стаж: 4 года 11 месяцев

Сообщений: 6035

Откуда: Soviet Union



Награды: Нет

Торрент-статистика

Создавать темы 11-Фев-2015 12:33

[Цитировать]

Год выпуска: 1991
Страна: Франция, Великобритания, Германия, США, Япония
Жанр: драма, комедия
Продолжительность: 02:08:04
Перевод: профессиональный многоголосый, авторский
Субтитры: русские, английские
Режиссёр: Джим Джармуш
В ролях: Вайнона Райдер, Джина Роулендс, Армин Мюллер-Шталь, Исаак Де Банколе, Роберто Бениньи, Джанкарло Эспозито, Рози Перес, Лизэнн Фальк, Алан Рэндольф Скотт, Энтони Портильо
Описание: Отстранённые, словно подсмотренные из космоса пять таксистских историй, грустных и комедийных, случившихся за одну ночь в пяти мегаполисах мира. Каждая имеет свою особенную тему, свойственную месту действия. Так, что такое карьера, выясняется в сердце американской мечты Лос-Анджелесе. Встреча Старого света с Новым происходит, конечно же, в бурлящем котле Нью-Йорка. О зрении и слепоте лучше всего знают в столице мировой красоты Париже, а вопросы жизни и смерти — в вечном городе Риме. И, наконец, тема заброшенности человека в этот мир нигде не выглядит более убедительно, чем на заснеженных просторах Хельсинки.

Качество: BDRip 720p Сравнение с исходником
Формат: MKV
Видео: MPEG-4 AVC, 6775 Кбит/с, 1280x720, 23.976 кадр/c, 0.307 bpp
Аудио 1: русский, AC3, 192 kbps, 2 ch, 48 kHz [профессиональный многоголосый]
Аудио 2: русский, AC3, 192 kbps, 2 ch, 48 kHz [авторский, Василий Горчаков]
Аудио 3: английский, AC3, 192 kbps, 2 ch, 48 kHz [оригинал]
Имеются неименованные главы/чаптеры.

MediaInfo

frame I:953 Avg QP:16.26 size: 93995
frame P:29269 Avg QP:17.31 size: 54267
frame B:154030 Avg QP:19.59 size: 32271
Общее
Уникальный идентификатор : 188498026204752960862774115950328357348 (0x8DCF6639591C3774BEDD4ADBC50121E4)
Полное имя : D:VideoNoch na Zemle.1991.BDRip.720p.mkv
Формат : Matroska
Версия формата : Version 4 / Version 2
Размер файла : 6,71 Гбайт
Продолжительность : 2 ч. 8 м.
Общий поток : 7500 Кбит/сек
Дата кодирования : UTC 2014-10-27 06:55:11
Программа кодирования : mkvmerge v7.3.0 ('Nouages') 64bit built on Oct 22 2014 18:53:34
Библиотека кодирования : libebml v1.3.0 + libmatroska v1.4.1
DURATION : 02:05:33.483000000
NUMBER_OF_FRAMES : 1502
NUMBER_OF_BYTES : 49504
_STATISTICS_WRITING_APP : mkvmerge v7.3.0 ('Nouages') 64bit built on Oct 22 2014 18:53:34
_STATISTICS_WRITING_DATE_UTC : 2014-10-27 06:55:11
_STATISTICS_TAGS : BPS DURATION NUMBER_OF_FRAMES NUMBER_OF_BYTES
Видео
Идентификатор : 1
Формат : AVC
Формат/Информация : Advanced Video Codec
Профиль формата : High@L4.1
Параметр CABAC формата : Да
Параметр ReFrames формата : 9 кадров
Идентификатор кодека : V_MPEG4/ISO/AVC
Продолжительность : 2 ч. 8 м.
Битрейт : 6775 Кбит/сек
Ширина : 1280 пикселей
Высота : 720 пикселей
Соотношение сторон : 16:9
Режим частоты кадров : Постоянный
Частота кадров : 23,976 кадра/сек
Цветовое пространство : YUV
Субдискретизация насыщенности : 4:2:0
Битовая глубина : 8 бит
Тип развёртки : Прогрессивная
Бит/(Пиксели*Кадры) : 0.307
Размер потока : 6,06 Гбайт (90%)
Заголовок : BDRip -- STarankov
Библиотека кодирования : x264 core 142 r2431 ac76440
Настройки программы : cabac=1 / ref=9 / deblock=1:-1:-1 / analyse=0x3:0x113 / me=umh / subme=10 / psy=1 / psy_rd=1.00:0.15 / mixed_ref=1 / me_range=32 / chroma_me=1 / trellis=2 / 8x8dct=1 / cqm=0 / deadzone=21,11 / fast_pskip=1 / chroma_qp_offset=-3 / threads=6 / lookahead_threads=1 / sliced_threads=0 / nr=0 / decimate=1 / interlaced=0 / bluray_compat=0 / constrained_intra=0 / bframes=12 / b_pyramid=2 / b_adapt=2 / b_bias=0 / direct=3 / weightb=1 / open_gop=0 / weightp=2 / keyint=230 / keyint_min=23 / scenecut=40 / intra_refresh=0 / rc_lookahead=40 / rc=crf / mbtree=0 / crf=19.0 / qcomp=0.60 / qpmin=0 / qpmax=69 / qpstep=4 / vbv_maxrate=50000 / vbv_bufsize=62500 / crf_max=0.0 / nal_hrd=none / filler=0 / ip_ratio=1.40 / pb_ratio=1.30 / aq=1:1.00
Язык : English
Default : Да
Forced : Нет
DURATION : 02:08:04.844000000
NUMBER_OF_FRAMES : 184252
NUMBER_OF_BYTES : 6648662336
_STATISTICS_WRITING_APP : mkvmerge v7.3.0 ('Nouages') 64bit built on Oct 22 2014 18:53:34
_STATISTICS_WRITING_DATE_UTC : 2014-10-27 06:55:11
_STATISTICS_TAGS : BPS DURATION NUMBER_OF_FRAMES NUMBER_OF_BYTES
Аудио #1
Идентификатор : 2
Формат : AC-3
Формат/Информация : Audio Coding 3
Расширение режима : CM (complete main)
Параметр Endianness формата : Big
Идентификатор кодека : A_AC3
Продолжительность : 2 ч. 8 м.
Вид битрейта : Постоянный
Битрейт : 192 Кбит/сек
Каналы : 2 канала
Расположение каналов : Front: L R
Частота : 48,0 КГц
Битовая глубина : 16 бит
Метод сжатия : С потерями
Размер потока : 176 Мбайт (3%)
Заголовок : MVO
Язык : Russian
Default : Да
Forced : Нет
Аудио #2
Идентификатор : 3
Формат : AC-3
Формат/Информация : Audio Coding 3
Расширение режима : CM (complete main)
Параметр Endianness формата : Big
Идентификатор кодека : A_AC3
Продолжительность : 2 ч. 8 м.
Вид битрейта : Постоянный
Битрейт : 192 Кбит/сек
Каналы : 2 канала
Расположение каналов : Front: L R
Частота : 48,0 КГц
Битовая глубина : 16 бит
Метод сжатия : С потерями
Размер потока : 176 Мбайт (3%)
Заголовок : AVO (Василий Горчаков)
Язык : Russian
Default : Нет
Forced : Нет
Аудио #3
Идентификатор : 4
Формат : AC-3
Формат/Информация : Audio Coding 3
Расширение режима : CM (complete main)
Параметр Endianness формата : Big
Идентификатор кодека : A_AC3
Продолжительность : 2 ч. 8 м.
Вид битрейта : Постоянный
Битрейт : 192 Кбит/сек
Каналы : 2 канала
Расположение каналов : Front: L R
Частота : 48,0 КГц
Битовая глубина : 16 бит
Метод сжатия : С потерями
Размер потока : 176 Мбайт (3%)
Заголовок : Original
Язык : English
Default : Нет
Forced : Нет
Текст #1
Идентификатор : 5
Формат : UTF-8
Идентификатор кодека : S_TEXT/UTF8
Идентификатор кодека/Информация : UTF-8 Plain Text
Заголовок : русский
Язык : Russian
Default : Нет
Forced : Нет
Текст #2
Идентификатор : 6
Формат : UTF-8
Идентификатор кодека : S_TEXT/UTF8
Идентификатор кодека/Информация : UTF-8 Plain Text
Заголовок : английский
Default : Нет
Forced : Нет
Меню
00:00:00.000 : :Chapter 01
00:02:30.357 : :Chapter 02
00:14:59.940 : :Chapter 03
00:26:56.697 : :Chapter 04
00:38:20.089 : :Chapter 05
00:51:14.738 : :Chapter 06
01:01:17.215 : :Chapter 07
01:10:26.764 : :Chapter 08
01:20:16.186 : :Chapter 09
01:36:47.176 : :Chapter 10
01:47:51.881 : :Chapter 11
02:01:56.183 : :Chapter 12
02:08:04.843 : :Chapter 13

Скриншоты (увеличить)

[Профиль] [ЛС]
Кто просматривает тему:

Показать сообщения:    

Текущее время: Сегодня 22:35

Часовой пояс: GMT



Вы не можете начинать темы
Вы не можете отвечать на сообщения
Вы не можете редактировать свои сообщения
Вы не можете удалять свои сообщения
Вы не можете голосовать в опросах
Вы не можете прикреплять файлы к сообщениям
Вы не можете скачивать файлы