Ночь накануне экзаменов / Ночь перед экзаменами / Notte prima degli esami (Фаусто Брицци / Fausto Brizzi) [2006, Италия, Комедия, DVDRip] DVO (IgVin & Solncekleshka)

 
Автор Сообщение

reversefile ®

Пол:

Стаж: 4 года 5 месяцев

Сообщений: 842

Откуда: ReverseFile.org



Награды: Нет

Торрент-статистика

Создавать темы 13-Авг-2014 10:04

[Цитировать]

Ночь накануне экзаменов / Ночь перед экзаменами / Notte prima degli esami
Страна: Италия
Жанр: Комедия
Год выпуска: 2006
Продолжительность: 01:39:53
Перевод: Любительский (двухголосый закадровый) IgVin & Solncekleshka
Cубтитры: нет
Режиссер: Фаусто Брицци / Fausto Brizzi
В ролях: Джорджо Фалетти, Николас Вапоридис, Кристиана Капотонди, Сара Маэстри,Кьяра Масталли, Андреа Де Роза,Эрос Гальбиати,Елена Боурика, Марко Ачети, Элеонора Сеси, Армандо Пиззути, Валерия Фабрици, Элеонора Брильядори
Описание: Когда до экзамена осталась всего лишь ночь, её можно потратить на чтение конспектов. А можно и повеселиться — как в последний раз…
Доп. информация:
Озвучка: Игорь Головин и Татьяна Романовская
Сведение звука: IgVin (Игорь Головин)
Видео: Maxj
Перевод на русский: debby
Редакция перевода: Lentyai80-Качество видео: DVDRip
Формат видео: AVI
Видео: 720x304 (2.35:1), 25 fps, XviD MPEG-4 ~1763 kbps avg, 0.322 bit/pixel
Аудио: AC3, 48 KHz, 192 kb/s (2 ch)

MediaInfo

D:\Notte prima degli esami 2006\Notte prima degli esami 2006.avi
General
Complete name : D:\Notte prima degli esami 2006\Notte prima degli esami 2006.avi
Format : AVI
Format/Info : Audio Video Interleave
File size : 1.37 GiB
Duration : 1h 39mn
Overall bit rate : 1 965 Kbps
Video #0
ID : 0
Format : MPEG-4 Visual
Format profile : Advanced Simple@L5
Format settings, BVOP : 2
Format settings, QPel : No
Format settings, GMC : No warppoints
Format settings, Matrix : Default (H.263)
Codec ID : XVID
Codec ID/Hint : XviD
Duration : 1h 39mn
Bit rate : 1 763 Kbps
Width : 720 pixels
Height : 304 pixels
Display aspect ratio : 2.35:1
Frame rate : 25.000 fps
Color space : YUV
Chroma subsampling : 4:2:0
Bit depth : 8 bits
Scan type : Progressive
Compression mode : Lossy
Bits/(Pixel*Frame) : 0.322
Stream size : 1.23 GiB (90%)
Writing library : XviD 73
Audio #1
ID : 1
Format : AC-3
Format/Info : Audio Coding 3
Mode extension : CM (complete main)
Format settings, Endianness : Big
Codec ID : 2000
Duration : 1h 39mn
Bit rate mode : Constant
Bit rate : 192 Kbps
Channel(s) : 2 channels
Channel positions : Front: L R
Sampling rate : 48.0 KHz
Bit depth : 16 bits
Compression mode : Lossy
Stream size : 137 MiB (10%)
Alignment : Aligned on interleaves
Interleave, duration : 40 ms (1.00 video frame)
Interleave, preload duration : 512 ms

Скриншот c названием фильма

[Профиль] [ЛС]

Создавать темы 06-Авг-2015 23:18 (спустя 11 месяцев 24 дня)

Топик был перенесен из форума Фильмы до 2014 года в форум Фильмы до 2012 года
sergej644
 
Кто просматривает тему:

Показать сообщения:    

Текущее время: Сегодня 08:30

Часовой пояс: GMT



Вы не можете начинать темы
Вы не можете отвечать на сообщения
Вы не можете редактировать свои сообщения
Вы не можете удалять свои сообщения
Вы не можете голосовать в опросах
Вы не можете прикреплять файлы к сообщениям
Вы не можете скачивать файлы