Ночь кошмаров / Night of the Creeps (Фред Деккер) [1986 г., ужасы, фантастика, триллер, комедия, BDRip-AVC] [AVO]

 
Автор Сообщение

Bathory ®

Пол:

Стаж: 9 месяцев 2 дня

Сообщений: 169



Награды: 3 (Подробнее)

Друг (Количество: 1) За внесенный вклад в развитие сайта (Количество: 1) Girls (Количество: 1)
Торрент-статистика

Создавать темы 07-Мар-2016 12:57

[Цитировать]

Ночь кошмаров / Ночь ползучих тварей / Night of the Creeps- Информация о фильме
Название: Ночь кошмаров / Ночь ползучих тварей
Оригинальное название: Night of the Creeps
Год выхода: 1986
Жанр: ужасы, фантастика, триллер, комедия
Режиссер: Фред Деккер
В ролях: Джейсон Ливли, Стив Маршалл, Джилл Уайтло, Том Аткинс, Уолли Тейлор, Брюс Соломон, Вик Полицос, Аллан Кайсер, Кен Херон, Элис Кэдоган
О фильме:
В окрестностях студенческого городка появляются пронырливые червеобразные твари. Они проникают в человеческий организм через рот и превращают людей в зомби. «Народное ополчение» против тварей возглавляют скромный студент с огнеметом наперевес и седой детектив.

Страна: США
Студия: TriStar Pictures, Delphi V Productions
Продолжительность: 01:29:52
Перевод:
1. Авторский (одноголосый закадровый) А. Марченко
2. Авторский (одноголосый закадровый) В. Штейн
Файл
Кодек: AVC
Качество: BDRip-AVC
Видео: 1032x560, 3084 kbps, 23,976 fps, 0,233 Bits/(Pixel*Frame)
Звук:
1. AC3, 48 kHz, 192 kbps, 2 ch - AVO (Марченко)
2. AC3, 48 kHz, 192 kbps, 2 ch - AVO (Штейн)
Субтитры: Русские, английские

MI

General
Unique ID : 226665547784326983736412772763996836993 (0xAA863253522B28C68FF3F3B1B0DCD481)
Complete name : G:Night.of.the.Creeps.1986.BDRip-AVC_by_Bathory.mkv
Format : Matroska
Format version : Version 4 / Version 2
File size : 2.18 GiB
Duration : 1h 29mn
Overall bit rate : 3 466 Kbps
Movie name : Night.of.the.Creeps.1986.1080p.Bluray.AVC.Remux
Encoded date : UTC 2016-03-06 18:33:04
Writing application : mkvmerge v8.8.0 ('Wind at my back') 64bit
Writing library : libebml v1.3.3 + libmatroska v1.4.4
DURATION : 01:20:41.919000000
NUMBER_OF_FRAMES : 794
NUMBER_OF_BYTES : 24692
_STATISTICS_WRITING_APP : mkvmerge v8.8.0 ('Wind at my back') 64bit
_STATISTICS_WRITING_DATE_UTC : 2016-03-06 18:33:04
_STATISTICS_TAGS : BPS DURATION NUMBER_OF_FRAMES NUMBER_OF_BYTES
Video
ID : 1
Format : AVC
Format/Info : Advanced Video Codec
Format profile : High@L4.1
Format settings, CABAC : Yes
Format settings, ReFrames : 11 frames
Codec ID : V_MPEG4/ISO/AVC
Duration : 1h 29mn
Bit rate : 3 084 Kbps
Width : 1 032 pixels
Height : 560 pixels
Display aspect ratio : 1.85:1
Frame rate mode : Constant
Frame rate : 23.976 fps
Color space : YUV
Chroma subsampling : 4:2:0
Bit depth : 8 bits
Scan type : Progressive
Bits/(Pixel*Frame) : 0.223
Stream size : 1.89 GiB (87%)
Writing library : x264 core 148 r2665 a01e339
Encoding settings : cabac=1 / ref=11 / deblock=1:-2:-2 / analyse=0x3:0x133 / me=umh / subme=11 / psy=1 / psy_rd=1.18:0.14 / mixed_ref=1 / me_range=32 / chroma_me=1 / trellis=2 / 8x8dct=1 / cqm=0 / deadzone=21,11 / fast_pskip=0 / chroma_qp_offset=-3 / threads=12 / lookahead_threads=3 / sliced_threads=0 / nr=0 / decimate=0 / interlaced=0 / bluray_compat=0 / constrained_intra=0 / bframes=14 / b_pyramid=2 / b_adapt=2 / b_bias=0 / direct=3 / weightb=1 / open_gop=0 / weightp=2 / keyint=240 / keyint_min=23 / scenecut=0 / intra_refresh=0 / rc_lookahead=60 / rc=2pass / mbtree=1 / bitrate=3084 / ratetol=1.0 / qcomp=0.70 / qpmin=0 / qpmax=69 / qpstep=4 / cplxblur=15.0 / qblur=0.5 / vbv_maxrate=62500 / vbv_bufsize=78125 / nal_hrd=none / filler=0 / ip_ratio=1.40 / aq=2:1.00
Default : Yes
Forced : No
Audio #1
ID : 2
Format : AC-3
Format/Info : Audio Coding 3
Mode extension : CM (complete main)
Format settings, Endianness : Big
Codec ID : A_AC3
Duration : 1h 29mn
Bit rate mode : Constant
Bit rate : 192 Kbps
Channel(s) : 2 channels
Channel positions : Front: L R
Sampling rate : 48.0 KHz
Bit depth : 16 bits
Compression mode : Lossy
Stream size : 123 MiB (6%)
Title : Marchenko
Language : Russian
Default : Yes
Forced : No
Audio #2
ID : 3
Format : AC-3
Format/Info : Audio Coding 3
Mode extension : CM (complete main)
Format settings, Endianness : Big
Codec ID : A_AC3
Duration : 1h 29mn
Bit rate mode : Constant
Bit rate : 192 Kbps
Channel(s) : 2 channels
Channel positions : Front: L R
Sampling rate : 48.0 KHz
Bit depth : 16 bits
Compression mode : Lossy
Stream size : 123 MiB (6%)
Title : Stein
Language : Russian
Default : No
Forced : No
Text #1
ID : 4
Format : UTF-8
Codec ID : S_TEXT/UTF8
Codec ID/Info : UTF-8 Plain Text
Language : Russian
Default : Yes
Forced : No
Text #2
ID : 5
Format : UTF-8
Codec ID : S_TEXT/UTF8
Codec ID/Info : UTF-8 Plain Text
Language : English
Default : No
Forced : No
Menu
00:00:00.000 : en:00:00:00.000
00:03:28.875 : en:00:03:28.875
00:10:24.332 : en:00:10:24.332
00:15:41.482 : en:00:15:41.482
00:23:03.716 : en:00:23:03.716
00:27:48.041 : en:00:27:48.041
00:34:50.130 : en:00:34:50.130
00:39:36.916 : en:00:39:36.916
00:45:03.618 : en:00:45:03.618
00:48:47.675 : en:00:48:47.675
00:53:33.919 : en:00:53:33.919
00:59:20.807 : en:00:59:20.807
01:05:26.631 : en:01:05:26.631
01:11:35.291 : en:01:11:35.291
01:17:41.198 : en:01:17:41.198
01:22:05.838 : en:01:22:05.838

Скриншоты

Автор рипа: Bathory
[Профиль] [ЛС]
Кто просматривает тему:

Показать сообщения:    

Текущее время: Сегодня 13:50

Часовой пояс: GMT



Вы не можете начинать темы
Вы не можете отвечать на сообщения
Вы не можете редактировать свои сообщения
Вы не можете удалять свои сообщения
Вы не можете голосовать в опросах
Вы не можете прикреплять файлы к сообщениям
Вы не можете скачивать файлы