Ночь коротка (Михаил Беликов) [1981, драма, мелодрама, DVB]

 
Автор Сообщение

reversefile ®

Пол:

Стаж: 4 года 5 месяцев

Сообщений: 842

Откуда: ReverseFile.org



Награды: Нет

Торрент-статистика

Создавать темы 11-Авг-2014 06:23

[Цитировать]

Ночь коротка
Жанр: драма, мелодрама
Год выпуска: 1981
Продолжительность: 01:13:42
Режиссёр: Михаил Беликов
В ролях: Сергей Канищев, Эдуард Соболев, Татьяна Каплун, Лена Середа, Наталия Селиверстова, Игорь Охлупин, Евгений Паперный, Валентина Гришокина, Нина Шаролапова, Елена Коваленко, Михаил Голубович, Игорь Филин, Александр Толстых, Анатолий Фещенко
Описание: Неизвестно, как бы сложилась судьба мальчугана Вани Голубенко, чье детство выпало на трудные послевоенные годы, если бы не фронтовой друг отца - Меркурий. Именно он помог Ване в трудную минуту, когда все глубже и глубже парня засасывала улица и многие взрослые, глядя на Ваню, беспомощно опустили руки.
Доп. информация: Запись потока *.ts со спутника SIRIUS, ремукс в *.mpg программой VideoReDo.
Постер из коллекции советских киноплакатов коллеги tokarevamarina.
Качество видео: DVB
Формат видео: MPEG-PS
Видео: MPEG Video, 720(768)x576 (4:3), 25,000 кадров/сек, 3 400 Кбит/сек
Аудио: MPEG Audio, 48,0 КГц, 192 Кбит/сек, 2 канала-

MediaInfo

General
Complete name : D:\MPG\Ночь коротка (TVCI new).mpg
Format : MPEG-PS
File size : 1.87 GiB
Duration : 1h 13mn
Overall bit rate mode : Variable
Overall bit rate : 3 638 Kbps
Video
ID : 224 (0xE0)
Format : MPEG Video
Format version : Version 2
Format profile : Main@Main
Format settings, BVOP : Yes
Format settings, Matrix : Custom
Duration : 1h 13mn
Bit rate mode : Variable
Bit rate : 3 400 Kbps
Width : 720 pixels
Height : 576 pixels
Display aspect ratio : 4:3
Frame rate : 25.000 fps
Standard : PAL
Color space : YUV
Chroma subsampling : 4:2:0
Bit depth : 8 bits
Scan type : Interlaced
Scan order : Top Field First
Compression mode : Lossy
Bits/(Pixel*Frame) : 0.328
Stream size : 1.74 GiB (93%)
Audio
ID : 192 (0xC0)
Format : MPEG Audio
Format version : Version 1
Format profile : Layer 2
Duration : 1h 13mn
Bit rate mode : Constant
Bit rate : 192 Kbps
Channel(s) : 2 channels
Sampling rate : 48.0 KHz
Compression mode : Lossy
Delay relative to video : 17ms
Stream size : 101 MiB (5%)
[Профиль] [ЛС]

Создавать темы 06-Авг-2015 22:03 (спустя 11 месяцев 26 дней)

Топик был перенесен из форума Кино СССР в форум Кино СССР
sergej644
 
Кто просматривает тему:

Показать сообщения:    

Текущее время: Сегодня 06:26

Часовой пояс: GMT



Вы не можете начинать темы
Вы не можете отвечать на сообщения
Вы не можете редактировать свои сообщения
Вы не можете удалять свои сообщения
Вы не можете голосовать в опросах
Вы не можете прикреплять файлы к сообщениям
Вы не можете скачивать файлы