Ночь демонов / Night of the Demons (Адам Гираш / Adam Gierasch) [2009 г., ужасы, комедия, BDRemux 1080p] DVO (RelizLab) + VO (zamez)

 
Автор Сообщение

Создавать темы 20-Июл-2014 03:05

-Ночь демонов / Night of the Demons-Год выпуска: 2009
Страна: США, Cold Fusion Media Group
Жанр: Ужасы, комедия
Продолжительность: 01:32:30-Перевод #1: Любительский (одноолосый закадровый) zamez по субтитрам Userman4ik
Перевод #2: Любительский (двухголосый закадровый) RelizLab
Cубтитры: русские, английские-Режиссер: Адам Гираш / Adam Gierasch
В ролях: Эдвард Ферлонг, Шеннон Элизабет, Моника Кина, Бобби Сью Лютер, Джон Бич, Майкл Копон, Тиффани Шепис, Эрик Ф. Адамс, Майкл Арата-Описание: Фабула ленты практически неотличима от исходной постановки: в пользующемся дурной славой особняке Бруссаров, где восемь лет назад бесследно исчезло шесть человек, а прознавшая об этом хозяйка покончила с собой, Мэдди Кертис, Лилли, Сюзанна и Анжела устраивают вечеринку, на которую заявляются их бывшие дружки Колин и Декс. После того, как шумных гостей увозит полиция, ребята обнаруживают, что их телефоны не работают, ворота поместья заперты и какая-то сверхъестественная сила удерживает их в особняке.-Доп. информация: русский звук и субтитры с раздачи Ko_Ant4-IMDb || КиноПоиск-Качество: BDRemux [BitHQ]
Формат: MKV
Видео: MPEG-4 AVC Video 19791 kbps 1080p / 23,976 fps / 16:9 / High Profile 4.1
Аудио#1: DTS Audio Russian 5.1 / 48 kHz / 1509 kbps / 24-bit [zamez]
Аудио#2: Dolby Digital Audio Russian 5.1 / 48 kHz / 448 kbps [RelizLab]
Аудио#3: DTS-HD Master Audio English 3862 kbps 5.1 / 48 kHz / 3862 kbps / 24-bit (DTS Core: 5.1 / 48 kHz / 1536 kbps / 24-bit)
Навигация по главам: есть

MI

General
Complete name                    : X:\  -= Фильмы =-\Ночь демонов (2009. Night of the Demons).mkv
Format                           : Matroska
File size                        : 16.6 GiB
Duration                         : 1h 32mn
Overall bit rate                 : 25.6 Mbps
Movie name                       : Night of the Demons BDRemux [torrentfilm.net]
Encoded date                     : UTC 2011-08-27 17:22:19
Writing application              : mkvmerge v4.9.1 ('Ich will') сборка от Jul 11 2011 23:53:15
Writing library                  : libebml v1.2.1 + libmatroska v1.1.1
Video
ID                               : 1
Format                           : AVC
Format/Info                      : Advanced Video Codec
Format profile                   : High@L4.1
Format settings, CABAC           : Yes
Format settings, ReFrames        : 4 frames
Muxing mode                      : Container profile=Unknown@4.1
Codec ID                         : V_MPEG4/ISO/AVC
Duration                         : 1h 32mn
Bit rate mode                    : Variable
Maximum bit rate                 : 35.0 Mbps
Width                            : 1 920 pixels
Height                           : 1 080 pixels
Display aspect ratio             : 16:9
Frame rate                       : 23.976 fps
Standard                         : NTSC
Color space                      : YUV
Chroma subsampling               : 4:2:0
Bit depth                        : 8 bits
Scan type                        : Progressive
Language                         : English
Color primaries                  : BT.709-5, BT.1361, IEC 61966-2-4, SMPTE RP177
Transfer characteristics         : BT.709-5, BT.1361
Matrix coefficients              : BT.709-5, BT.1361, IEC 61966-2-4 709, SMPTE RP177
Audio #1
ID                               : 2
Format                           : DTS
Format/Info                      : Digital Theater Systems
Codec ID                         : A_DTS
Duration                         : 1h 32mn
Bit rate mode                    : Constant
Bit rate                         : 1 510 Kbps
Channel(s)                       : 6 channels
Channel positions                : Front: L C R, Side: L R, LFE
Sampling rate                    : 48.0 KHz
Bit depth                        : 24 bits
Stream size                      : 1 002 MiB (6%)
Title                            : VO [Zames]
Language                         : Russian
Audio #2
ID                               : 3
Format                           : AC-3
Format/Info                      : Audio Coding 3
Mode extension                   : CM (complete main)
Codec ID                         : A_AC3
Duration                         : 1h 32mn
Bit rate mode                    : Constant
Bit rate                         : 448 Kbps
Channel(s)                       : 6 channels
Channel positions                : Front: L C R, Side: L R, LFE
Sampling rate                    : 48.0 KHz
Bit depth                        : 16 bits
Stream size                      : 297 MiB (2%)
Title                            : DVO [RelizLab]
Language                         : Russian
Audio #3
ID                               : 6
Format                           : DTS
Format/Info                      : Digital Theater Systems
Format profile                   : MA
Codec ID                         : A_DTS
Duration                         : 1h 32mn
Bit rate mode                    : Variable
Channel(s)                       : 6 channels
Channel positions                : Front: L C R, Side: L R, LFE
Sampling rate                    : 48.0 KHz
Bit depth                        : 24 bits
Language                         : English
Text #1
ID                               : 4
Format                           : UTF-8
Codec ID                         : S_TEXT/UTF8
Codec ID/Info                    : UTF-8 Plain Text
Title                            : Userman4ik
Language                         : Russian
Text #2
ID                               : 5
Format                           : UTF-8
Codec ID                         : S_TEXT/UTF8
Codec ID/Info                    : UTF-8 Plain Text
Language                         : English
Menu
00:00:00.000                     : en:00:00:00.000
00:05:16.942                     : en:00:05:16.942
00:11:47.123                     : en:00:11:47.123
00:18:47.626                     : en:00:18:47.626
00:23:48.010                     : en:00:23:48.010
00:30:42.049                     : en:00:30:42.049
00:34:23.019                     : en:00:34:23.019
00:42:04.272                     : en:00:42:04.272
00:47:31.974                     : en:00:47:31.974
00:54:23.218                     : en:00:54:23.218
00:59:42.537                     : en:00:59:42.537
01:05:27.340                     : en:01:05:27.340
01:11:21.235                     : en:01:11:21.235
01:17:54.420                     : en:01:17:54.420
01:22:08.549                     : en:01:22:08.549
01:27:12.644                     : en:01:27:12.644
 
Кто просматривает тему:

Показать сообщения:    

Текущее время: Сегодня 03:21

Часовой пояс: GMT



Вы не можете начинать темы
Вы не можете отвечать на сообщения
Вы не можете редактировать свои сообщения
Вы не можете удалять свои сообщения
Вы не можете голосовать в опросах
Вы не можете прикреплять файлы к сообщениям
Вы не можете скачивать файлы