Ночь в музее 2 / Night at the Museum: Battle of the Smithsonian (2009) BDRip-AVC | iPad | D

 
Автор Сообщение

sergej644 ®

Пол:

Стаж: 4 года 11 месяцев

Сообщений: 6046

Откуда: Soviet Union



Награды: Нет

Торрент-статистика

Создавать темы 02-Сен-2014 10:34

[Цитировать]

Ночь в музее 2 / Night at the Museum: Battle of the Smithsonian (2009) BDRip-AVC | iPad | D
«Когда наступит ночь, начнется битва»

Название: Ночь в музее 2
Оригинальное название: Night at the Museum: Battle of the Smithsonian
Год выхода: 2009
Жанр: фэнтези, комедия, приключения, семейный
Режиссер: Шон Леви
В ролях: Бен Стиллер, Эми Адамс, Оуэн Уилсон, Хэнк Азария, Робин Уильямс, Кристофер Гест, Ален Шаба, Стив Кугэн, Рики Джервис, Билл Хадер, Джон Бернтал, Патрик Галлахер, Джэйк Черри, Рэми Малек, Мицуо Пек, Керри ван дер Грайнд, Мэттью Харрисон, Рик Добран, Рэнди Ли, Дэррил Квон, Джералд Вонг
О фильме:
Экспонаты Музея Естественной истории живут обычной жизнью. По коридорам бегает скелет динозавра, герои гражданской войны сражаются друг с другом, древние люди добывают огонь, миниатюрные ковбои выясняют отношения с древними Римлянами, Теодор Рузвельт философствует о смысле жизни и ухаживает за индианкой. Никто из этой разношерстной компании даже не представляет, что скоро им предстоит познакомиться с новыми экспонатами. Среди них окажется и та, что разобьет сердце охраннику Ларри.

Страна: США, Канада
Студия: 20th Century Fox Film Corporation, 21 Laps Entertainment, Museum Canada Productions, 1492 Pictures
Продолжительность: 01:44:44
Перевод: Русский дублированный
Файл
Кодек: H.264
Качество: BDRip-AVC [576p]
Видео: 1024x436 (2.35:1) at 23.976 fps, AVC at 3000 kbps
Звук:
1: АAС 2.0 160 kbps - Русский дублированный
2: АAС 2.0 160 kbps - Английский
Субтитры: Отсутствует

MI

General
Complete name : C:CREATE264mod1outNight.at.the.Museum.II.2009.576p.D.m4v
Format : MPEG-4
Codec ID : M4V
File size : 2.45 GiB
Duration : 1h 44mn
Overall bit rate mode : Variable
Overall bit rate : 3 354 Kbps
Movie name : Ночь в музее 2
Performer : Shawn Levy
Genre : Kids & Family
ContentType : Short Film
Deion : Экспонаты Музея Естественной истории живут обычной жизнью. По коридорам бегает скелет динозавра, герои гражданской войны сражаются друг с другом, древние люди добывают огонь, миниатюрные ковбои выясняют отношения с древними Римлянами...
Recorded date : UTC 2009-05-22 07:00:00
Encoded date : UTC 2014-09-01 15:59:28
Tagged date : UTC 2014-09-01 16:01:20
Copyright : © 2009 Twentieth Century Fox Film Corporation. All Rights Reserved.
Cover : Yes
Comment : «Когда наступит ночь, начнется битва»
ContentRating : mpaa|PG|200|
Title/Sort : Night at the Museum: Battle of the Smithsonian
LongDeion : Экспонаты Музея Естественной истории живут обычной жизнью. По коридорам бегает скелет динозавра, герои гражданской войны сражаются друг с другом, древние люди добывают огонь, миниатюрные ковбои выясняют отношения с древними Римлянами, Теодор Рузвельт философствует о смысле жизни и ухаживает за индианкой. Никто из этой разношерстной компании даже не представляет, что скоро им предстоит познакомиться с новыми экспонатами. Среди них окажется и та, что разобьет сердце охраннику Ларри.
AppleStoreCatalogID : 320936542
Vendor : Apple:vendor_id:2009-392928
Video
ID : 1
Format : AVC
Format/Info : Advanced Video Codec
Format profile : High@L4.1
Format settings, CABAC : Yes
Format settings, ReFrames : 9 frames
Codec ID : avc1
Codec ID/Info : Advanced Video Coding
Duration : 1h 44mn
Bit rate : 3 009 Kbps
Maximum bit rate : 11.0 Mbps
Width : 1 024 pixels
Height : 436 pixels
Display aspect ratio : 2.35:1
Frame rate mode : Constant
Frame rate : 23.976 fps
Color space : YUV
Chroma subsampling : 4:2:0
Bit depth : 8 bits
Scan type : Progressive
Bits/(Pixel*Frame) : 0.281
Stream size : 2.20 GiB (90%)
Title : Night.at.the.Museum.II.2009
Language : English
Encoded date : UTC 2014-09-01 15:59:28
Tagged date : UTC 2014-09-01 15:59:51
Audio #1
ID : 2
Format : AAC
Format/Info : Advanced Audio Codec
Format profile : LC
Codec ID : 40
Duration : 1h 44mn
Bit rate mode : Variable
Bit rate : 168 Kbps
Maximum bit rate : 201 Kbps
Channel(s) : 2 channels
Channel positions : Front: L R
Sampling rate : 48.0 KHz
Compression mode : Lossy
Stream size : 126 MiB (5%)
Title : DUB
Language : Russian
Encoded date : UTC 2014-09-01 15:52:19
Tagged date : UTC 2014-09-01 15:59:51
Audio #2
ID : 3
Format : AAC
Format/Info : Advanced Audio Codec
Format profile : LC
Codec ID : 40
Duration : 1h 44mn
Bit rate mode : Variable
Bit rate : 163 Kbps
Maximum bit rate : 203 Kbps
Channel(s) : 2 channels
Channel positions : Front: L R
Sampling rate : 48.0 KHz
Compression mode : Lossy
Stream size : 122 MiB (5%)
Language : English
Encoded date : UTC 2014-09-01 15:57:38
Tagged date : UTC 2014-09-01 15:59:51
Menu
ID : 4
Codec ID : text
Duration : 1h 44mn
Encoded date : UTC 2014-09-01 16:00:19
Tagged date : UTC 2014-09-01 16:00:20
Bit rate mode : CBR

iTunes tags

Sort Name: Night at the Museum: Battle of the Smithsonian
XID: Apple:vendor_id:2009-392928
Content ID: 320936542
Copyright: © 2009 Twentieth Century Fox Film Corporation. All Rights Reserved.
ScreenWriters: Роберт Бен Гарант, Томас Леннон
Producers: Майкл Барнатан, Крис Коламбус, Шон Леви
Director: Шон Леви
Cast: Ben Stiller (Larry Daley), Amy Adams (Amelia Earhart), Owen Wilson (Jedediah Smith), Hank Azaria (Kahmunrah / The Thinker / Abe Lincoln), Robin Williams (Theodore Roosevelt), Christopher Guest (Ivan the Terrible), Steve Coogan (Octavius), Ricky Gervais (Dr. McPhee), Bill Hader (General George Armstrong Custer), Jon Bernthal (Al Capone), Kai James (Teenage Boy #3), Mizuo Peck (Sacajawea), Rami Malek (Ahkmenrah)
Rating: PG
Long Deion: Экспонаты Музея Естественной истории живут обычной жизнью. По коридорам бегает скелет динозавра, герои гражданской войны сражаются друг с другом, древние люди добывают огонь, миниатюрные ковбои выясняют отношения с древними Римлянами, Теодор Рузвельт философствует о смысле жизни и ухаживает за индианкой. Никто из этой разношерстной компании даже не представляет, что скоро им предстоит познакомиться с новыми экспонатами. Среди них окажется и та, что разобьет сердце охраннику Ларри.
Deion: Экспонаты Музея Естественной истории живут обычной жизнью. По коридорам бегает скелет динозавра, герои гражданской войны сражаются друг с другом, древние люди добывают огонь, миниатюрные ковбои выясняют отношения с древними Римлянами...
Release Date: 2009-05-22T07:00:00Z
Genre: Kids & Family
Artist: Shawn Levy
Name: Ночь в музее 2
Comments: «Когда наступит ночь, начнется битва»

x264

x264 [info]: frame I:1431 Avg QP:14.37 size:117447
x264 [info]: frame P:36864 Avg QP:18.38 size: 35647
x264 [info]: frame B:112353 Avg QP:21.54 size: 7842
x264 [info]: consecutive B-frames: 3.0% 4.3% 16.0% 20.9% 18.6% 30.9% 4.0% 0.8% 0.6% 0.4% 0.1% 0.1% 0.1% 0.1% 0.1%
x264 [info]: mb I I16..4: 17.3% 47.2% 35.5%
x264 [info]: mb P I16..4: 0.6% 8.7% 3.2% P16..4: 24.6% 33.6% 18.0% 6.7% 1.7% skip: 2.9%
x264 [info]: mb B I16..4: 0.0% 1.1% 0.5% B16..8: 38.1% 21.5% 3.7% direct: 4.3% skip:30.8% L0:38.0% L1:43.7% BI:18.3%
x264 [info]: 8x8 transform intra:64.6% inter:48.7%
x264 [info]: coded y,uvDC,uvAC intra: 91.2% 75.7% 53.1% inter: 25.4% 18.9% 7.9%
x264 [info]: i16 v,h,dc,p: 8% 7% 34% 51%
x264 [info]: i8 v,h,dc,ddl,ddr,vr,hd,vl,hu: 14% 9% 8% 9% 12% 12% 12% 11% 12%
x264 [info]: i4 v,h,dc,ddl,ddr,vr,hd,vl,hu: 35% 9% 6% 6% 10% 10% 9% 8% 9%
x264 [info]: i8c dc,h,v,p: 34% 28% 23% 16%
x264 [info]: Weighted P-Frames: Y:2.4% UV:1.4%
x264 [info]: ref P L0: 58.1% 11.5% 12.3% 5.6% 3.9% 3.0% 2.4% 1.5% 1.6% 0.2% 0.0%
x264 [info]: ref B L0: 86.1% 6.0% 3.1% 1.7% 1.2% 0.8% 0.8% 0.3%
x264 [info]: ref B L1: 94.4% 5.6%
x264 [info]: kb/s:3008.97
--
[Профиль] [ЛС]
Кто просматривает тему:

Показать сообщения:    

Текущее время: Сегодня 09:12

Часовой пояс: GMT



Вы не можете начинать темы
Вы не можете отвечать на сообщения
Вы не можете редактировать свои сообщения
Вы не можете удалять свои сообщения
Вы не можете голосовать в опросах
Вы не можете прикреплять файлы к сообщениям
Вы не можете скачивать файлы