Ночь в музее 2 / Night at the Museum: Battle of the Smithsonian (Шон Леви / Shawn Levy) [2009, США, Канада, фэнтези, комедия, приключения, BDRip] Dub

 
Автор Сообщение

sergej644 ®

Пол:

Стаж: 4 года 11 месяцев

Сообщений: 6038

Откуда: Soviet Union



Награды: Нет

Торрент-статистика

Создавать темы 18-Авг-2014 22:04

[Цитировать]

Ночь в музее 2 / Night at the Museum: Battle of the Smithsonian«Когда наступит ночь, начнется битва»- Год выпуска: 2009
Страна: США, Канада / 1492 Pictures, 20th Century Fox Film Corporation
Жанр: фэнтези, комедия, приключения, семейный
Продолжительность: 01:44:43
Перевод: Профессиональный (полное дублирование) BD CEE
Субтитры: нет-Режиссёр: Шон Леви / Shawn Levy-В ролях: Бен Стиллер, Эми Адамс, Оуэн Уилсон, Хэнк Азария, Робин Уильямс, Кристофер Гест, Ален Шаба, Стив Куган, Джон Бернтал, Билл Хейдер, Рики Джервэйс, Патрик Галлахер, Джэйк Черри, Рами Малек, Мицуо Пек, Керри ван дер Грайнд, Мэттью Харрисон, Рик Добран, Рэнди Ли, Дэррил Квон, Джералд Вонг, Пол Чи-пинг Чэн, Джей Барушель, Минди Кейлинг, Кит Пауэлл, Крэйг Робинсон, Сэмюэл Патрик Чу, Огастус Ойкл, Кай Джеймс, Клинт Ховард-Описание: Экспонаты Музея Естественной истории живут обычной жизнью. По коридорам бегает скелет динозавра, герои гражданской войны сражаются друг с другом, древние люди добывают огонь, миниатюрные ковбои выясняют отношения с древними Римлянами, Теодор Рузвельт философствует о смысле жизни и ухаживает за индианкой. Никто из этой разношерстной компании даже не представляет, что скоро им предстоит познакомиться с новыми экспонатами. Среди них окажется и та, что разобьет сердце охраннику Ларри.- -Сэмпл: http://multi-up.com/993396-Качество: BDRip
Формат: AVI
Видео: 720x304 (2.37:1), 23.976 fps, XviD build 73 ~1535 kbps avg, 0.29 bit/pixel
Аудио: 48 kHz, AC3 Dolby Digital, 3/2 (L,C,R,l,r) + LFE ch, ~448.00 kbps avg
-

Media Info

Формат                                   : AVI
Формат/Информация                        : Audio Video Interleave
Размер файла                             : 1,46 Гбайт
Продолжительность                        : 1 ч. 44 м.
Общий поток                              : 1992 Кбит/сек
Программа кодирования                    : VirtualDubMod 1.5.10.3 | www.virtualdub-fr.org || (build 2550/release)
Библиотека кодирования                   : VirtualDubMod build 2550/release
Видео
Идентификатор                            : 0
Формат                                   : MPEG-4 Visual
Профиль формата                          : Advanced Simple@L5
Параметр BVOP формата                    : 1
Параметр QPel формата                    : Нет
Параметр GMC формата                     : Без точки перехода
Параметр матрицы формата                 : Выборочная
Идентификатор кодека                     : XVID
Идентификатор кодека/Подсказка           : XviD
Продолжительность                        : 1 ч. 44 м.
Битрейт                                  : 1535 Кбит/сек
Ширина                                   : 720 пикселей
Высота                                   : 304 пикселя
Соотношение сторон                       : 2,35:1
Частота кадров                           : 23,976 кадра/сек
Цветовое пространство                    : YUV
Субдискретизация насыщенности            : 4:2:0
Битовая глубина                          : 8 бит
Тип развёртки                            : Прогрессивная
Метод сжатия                             : С потерями
Бит/(Пиксели*Кадры)                      : 0.292
Размер потока                            : 1,12 Гбайт (77%)
Библиотека кодирования                   : XviD 73
Аудио
Идентификатор                            : 1
Формат                                   : AC-3
Формат/Информация                        : Audio Coding 3
Расширение режима                        : CM (complete main)
Параметр Endianness формата              : Big
Идентификатор кодека                     : 2000
Продолжительность                        : 1 ч. 44 м.
Вид битрейта                             : Постоянный
Битрейт                                  : 448 Кбит/сек
Каналы                                   : 6 каналов
Расположение каналов                     : Front: L C R, Side: L R, LFE
Частота                                  : 48,0 КГц
Битовая глубина                          : 16 бит
Метод сжатия                             : С потерями
Размер потока                            : 336 Мбайт (22%)
Выравнивание                             : Разделение по промежуткам
Продолжительность промежутка             : 42  мс. (1,00 видеокадр)
Время предзагрузки промежутка            : 500  мс.

Скриншоты

--
[Профиль] [ЛС]

Создавать темы 06-Авг-2015 23:06 (спустя 11 месяцев 19 дней)

Топик был перенесен из форума Фильмы до 2014 года в форум Фильмы до 2012 года
sergej644
 

Создавать темы 12-Июн-2016 08:48 (спустя 1 год 9 месяцев)

Топик был перенесен из форума Фильмы 2011 года в форум Фильмы 2009 года
Russian Mafia
 
Кто просматривает тему:

Показать сообщения:    

Текущее время: Сегодня 20:02

Часовой пояс: GMT



Вы не можете начинать темы
Вы не можете отвечать на сообщения
Вы не можете редактировать свои сообщения
Вы не можете удалять свои сообщения
Вы не можете голосовать в опросах
Вы не можете прикреплять файлы к сообщениям
Вы не можете скачивать файлы