Ночь в музее / Night at the Museum (Шон Леви / Shawn Levy) [2006, США, Великобритания, фэнтези, комедия, приключения, BDRip] Dub

 
Автор Сообщение

reversefile ®

Пол:

Стаж: 4 года 5 месяцев

Сообщений: 842

Откуда: ReverseFile.org



Награды: Нет

Торрент-статистика

Создавать темы 13-Авг-2014 10:02

[Цитировать]

Ночь в музее / Night at the Museum«Всё оживает»- Год выпуска: 2006
Жанр: фэнтези, комедия, приключения
Страна: США, Великобритания / 1492 Pictures, 20th Century Fox Film Corporation
Продолжительность: 01:48:35
Перевод: Профессиональный (полное дублирование) BD CEE
Субтитры: нет-Режиссёр: Шон Леви / Shawn Levy-В ролях: Бен Стиллер, Джэйк Черри, Карла Гуджино, Робин Уильямс, Стив Куган, Оуэн Уилсон, Дик Ван Дайк, Микки Руни, Билл Коббс, Рики Джервэйс, Ким Рэйвер, Патрик Галлахер, Рами Малек, Пьерфранческо Фавино, Чарльз К. Мёрфи, Мицуо Пек, Керри ван дер Грайнд, Дэн Риззуто, Мэттью Харрисон, Джоди Расикот, Пол Радд, Энн Мира, Мартин Кристофер, Мартин Симс, Рэнди Ли, Дэррил Квон, Джералд Вонг, Пол Чи-пинг Чэн, Тигл Ф. Бужер, Пэт Кирнан-Описание: Молодой человек в поисках работы попадает в музей, где приступает к обязанностям ночного сторожа. Оказывается, не такая это простая работа, как могло показаться на первый взгляд. Ведь самое главное — не только не дать никому войти в музей, но и не позволить никому и ничему из музея выйти….- -Сэмпл: http://multi-up.com/991229-Качество: BDRip
Формат: AVI
Видео: 688x368 (1.85:1), 23.976 fps, XviD build 73 ~1466 kbps avg, 0.24 bit/pixel
Аудио: 48 kHz, AC3 Dolby Digital, 3/2 (L,C,R,l,r) + LFE ch, ~448.00 kbps avg
-

Media Info

Формат                                   : AVI
Формат/Информация                        : Audio Video Interleave
Размер файла                             : 1,46 Гбайт
Продолжительность                        : 1 ч. 48 м.
Общий поток                              : 1924 Кбит/сек
Программа кодирования                    : VirtualDubMod 1.5.10.3 | www.virtualdub-fr.org || (build 2550/release)
Библиотека кодирования                   : VirtualDubMod build 2550/release
Видео
Идентификатор                            : 0
Формат                                   : MPEG-4 Visual
Профиль формата                          : Advanced Simple@L5
Параметр BVOP формата                    : 1
Параметр QPel формата                    : Нет
Параметр GMC формата                     : Без точки перехода
Параметр матрицы формата                 : Выборочная
Идентификатор кодека                     : XVID
Идентификатор кодека/Подсказка           : XviD
Продолжительность                        : 1 ч. 48 м.
Битрейт                                  : 1466 Кбит/сек
Ширина                                   : 688 пикселей
Высота                                   : 368 пикселей
Соотношение сторон                       : 1,85:1
Частота кадров                           : 23,976 кадра/сек
Цветовое пространство                    : YUV
Субдискретизация насыщенности            : 4:2:0
Битовая глубина                          : 8 бит
Тип развёртки                            : Прогрессивная
Метод сжатия                             : С потерями
Бит/(Пиксели*Кадры)                      : 0.242
Размер потока                            : 1,11 Гбайт (76%)
Библиотека кодирования                   : XviD 73
Аудио
Идентификатор                            : 1
Формат                                   : AC-3
Формат/Информация                        : Audio Coding 3
Расширение режима                        : CM (complete main)
Параметр Endianness формата              : Big
Идентификатор кодека                     : 2000
Продолжительность                        : 1 ч. 48 м.
Вид битрейта                             : Постоянный
Битрейт                                  : 448 Кбит/сек
Каналы                                   : 6 каналов
Расположение каналов                     : Front: L C R, Side: L R, LFE
Частота                                  : 48,0 КГц
Битовая глубина                          : 16 бит
Метод сжатия                             : С потерями
Размер потока                            : 348 Мбайт (23%)
Выравнивание                             : Разделение по промежуткам
Продолжительность промежутка             : 42  мс. (1,00 видеокадр)
Время предзагрузки промежутка            : 500  мс.

Скриншоты

--
[Профиль] [ЛС]

Создавать темы 06-Авг-2015 23:19 (спустя 11 месяцев 24 дня)

Топик был перенесен из форума Фильмы до 2014 года в форум Фильмы до 2012 года
sergej644
 
Кто просматривает тему:

Показать сообщения:    

Текущее время: Сегодня 13:52

Часовой пояс: GMT



Вы не можете начинать темы
Вы не можете отвечать на сообщения
Вы не можете редактировать свои сообщения
Вы не можете удалять свои сообщения
Вы не можете голосовать в опросах
Вы не можете прикреплять файлы к сообщениям
Вы не можете скачивать файлы