Ночь в музее: Секрет гробницы / Night at the Museum: Secret of the Tomb (2015) BDRip 1080p | Лицензия

 
Автор Сообщение

sergej644 ®

Пол:

Стаж: 4 года 11 месяцев

Сообщений: 6044

Откуда: Soviet Union



Награды: Нет

Торрент-статистика

Создавать темы 13-Мар-2015 19:03

[Цитировать]

Ночь в музее: Секрет гробницы / Night at the Museum: Secret of the Tomb
«Эта ночь изменит всё»
Русское название: Ночь в музее: Секрет гробницы
Оригинальное название: Night at the Museum: Secret of the Tomb
Год выпуска: 2014
Жанр: фэнтези, комедия, приключения, семейный
Выпущено: США, Великобритания
Режиссер: Шон Леви
В ролях: Бен Стиллер , Робин Уильямс , Оуэн Уилсон , Стив Куган , Рики Джервэйс , Дэн Стивенс , Ребел Уилсон , Скайлер Джизондо , Рами Малек , Патрик Галлахер , Мицуо Пек , Бен Кингсли
Перевод: Дублированный - [Лицензия]

Сюжет фильма:
Ночной сторож Музея естественной истории в Нью-Йорке Ларри Дэйли в отчаянии: его друзья-экспонаты начинают странно себя вести, а всё потому, что оживляющая их древнеегипетская золотая пластина разрушается. Только отец фараона Ахкменра знает тайну магического артефакта, но вот беда - его мумия далеко, она выставлена в Британском музее естествознания! Команда любимых героев предпринимает беспрецедентное путешествие в Лондон. Они должны объединиться с британскими экспонатами и рискнуть всем, чтобы восстановить золотую пластину до того, как Ларри потеряет своих друзей навсегда.

Качество: BDRip 1080p (исходник Blu-ray)
Формат: AVC (библиотека кодирования x.264)
Контейнер (Расширение): MKV
Видео: 1920x1036, 10270 Кбит/сек, 23,976 кадр/сек, 0,215 Бит/[Пиксели*Кадры]
Аудио №1: русский / AC3 / 5.1 / 48 kHz / 448 kbps / |Дублированный|
Аудио №2: английский / AC3 / 5.1 / 48 kHz / 640 kbps /
Субтитры: русские (Forced), русские (Full), английские (Full), английские (SDH), английские (SDH-Colored)
Навигация по главам(Чаптеры): есть
Продолжительность: 01:37:48

MediaInfo

Format                                   : Matroska
Format version                           : Version 2
File size                                : 7.75 GiB
Duration                                 : 1h 37mn
Overall bit rate                         : 11.3 Mbps
Movie name                               : Noch' v muzee: Sekret grobnicy.(2014).BDRip.1080p.[denis100]
Encoded date                             : UTC 2015-03-13 08:38:20
Writing application                      : mkvmerge v5.8.0 ('No Sleep / Pillow') built on Sep  2 2012 15:37:04
Writing library                          : libebml v1.2.3 + libmatroska v1.3.0
Video
ID                                       : 1
Format                                   : AVC
Format/Info                              : Advanced Video Codec
Format profile                           : High@L4.1
Format settings, CABAC                   : Yes
Format settings, ReFrames                : 4 frames
Codec ID                                 : V_MPEG4/ISO/AVC
Duration                                 : 1h 37mn
Bit rate                                 : 10.3 Mbps
Width                                    : 1 920 pixels
Height                                   : 1 036 pixels
Display aspect ratio                     : 1.853
Frame rate                               : 23.976 fps
Color space                              : YUV
Chroma subsampling                       : 4:2:0
Bit depth                                : 8 bits
Scan type                                : Progressive
Bits/(Pixel*Frame)                       : 0.215
Stream size                              : 6.85 GiB (88%)
Title                                    : Noch' v muzee: Sekret grobnicy.(2014).BDRip.1080p.[denis100]
Writing library                          : x264 core 144 r2525 40bb568
Encoding settings                        : cabac=1 / ref=4 / deblock=1:-3:-3 / analyse=0x3:0x133 / me=umh / subme=11 / psy=1 / psy_rd=1.00:0.00 / mixed_ref=1 / me_range=32 / chroma_me=1 / trellis=2 / 8x8dct=1 / cqm=0 / deadzone=21,11 / fast_pskip=0 / chroma_qp_offset=-2 / threads=6 / lookahead_threads=1 / sliced_threads=0 / nr=0 / decimate=1 / interlaced=0 / bluray_compat=0 / constrained_intra=0 / bframes=8 / b_pyramid=2 / b_adapt=2 / b_bias=0 / direct=3 / weightb=1 / open_gop=0 / weightp=2 / keyint=240 / keyint_min=23 / scenecut=40 / intra_refresh=0 / rc=2pass / mbtree=0 / bitrate=10270 / ratetol=1.0 / qcomp=0.60 / qpmin=0 / qpmax=69 / qpstep=4 / cplxblur=20.0 / qblur=0.5 / ip_ratio=1.40 / pb_ratio=1.30 / aq=1:1.00
Language                                 : English
Default                                  : Yes
Forced                                   : No
Audio #1
ID                                       : 2
Format                                   : AC-3
Format/Info                              : Audio Coding 3
Mode extension                           : CM (complete main)
Codec ID                                 : A_AC3
Duration                                 : 1h 37mn
Bit rate mode                            : Constant
Bit rate                                 : 448 Kbps
Channel(s)                               : 6 channels
Channel positions                        : Front: L C R, Side: L R, LFE
Sampling rate                            : 48.0 KHz
Bit depth                                : 16 bits
Compression mode                         : Lossy
Stream size                              : 313 MiB (4%)
Title                                    : Дублированный
Language                                 : Russian
Default                                  : Yes
Forced                                   : No
Audio #2
ID                                       : 3
Format                                   : AC-3
Format/Info                              : Audio Coding 3
Mode extension                           : CM (complete main)
Codec ID                                 : A_AC3
Duration                                 : 1h 37mn
Bit rate mode                            : Constant
Bit rate                                 : 640 Kbps
Channel(s)                               : 6 channels
Channel positions                        : Front: L C R, Side: L R, LFE
Sampling rate                            : 48.0 KHz
Bit depth                                : 16 bits
Compression mode                         : Lossy
Stream size                              : 448 MiB (6%)
Title                                    : English
Language                                 : English
Default                                  : No
Forced                                   : No
Text #1
ID                                       : 4
Format                                   : UTF-8
Codec ID                                 : S_TEXT/UTF8
Codec ID/Info                            : UTF-8 Plain Text
Title                                    : Forced
Language                                 : Russian
Default                                  : Yes
Forced                                   : No
Text #2
ID                                       : 5
Format                                   : UTF-8
Codec ID                                 : S_TEXT/UTF8
Codec ID/Info                            : UTF-8 Plain Text
Title                                    : Full
Language                                 : Russian
Default                                  : No
Forced                                   : No
Text #3
ID                                       : 6
Format                                   : UTF-8
Codec ID                                 : S_TEXT/UTF8
Codec ID/Info                            : UTF-8 Plain Text
Title                                    : Full
Language                                 : English
Default                                  : No
Forced                                   : No
Text #4
ID                                       : 7
Format                                   : UTF-8
Codec ID                                 : S_TEXT/UTF8
Codec ID/Info                            : UTF-8 Plain Text
Title                                    : SDH
Language                                 : English
Default                                  : No
Forced                                   : No
Text #5
ID                                       : 8
Format                                   : UTF-8
Codec ID                                 : S_TEXT/UTF8
Codec ID/Info                            : UTF-8 Plain Text
Title                                    : SDH-Colored
Language                                 : English
Default                                  : No
Forced                                   : No
Menu
00:00:00.000                             : en:00:00:00.000
00:04:34.441                             : en:00:04:34.441
00:06:29.347                             : en:00:06:29.347
00:09:10.884                             : en:00:09:10.884
00:13:18.131                             : en:00:13:18.131
00:14:43.132                             : en:00:14:43.132
00:18:01.038                             : en:00:18:01.038
00:19:58.906                             : en:00:19:58.906
00:22:27.388                             : en:00:22:27.388
00:24:47.611                             : en:00:24:47.611
00:26:26.084                             : en:00:26:26.084
00:29:11.583                             : en:00:29:11.583
00:32:03.505                             : en:00:32:03.505
00:35:50.815                             : en:00:35:50.815
00:39:48.761                             : en:00:39:48.761
00:44:14.735                             : en:00:44:14.735
00:51:19.285                             : en:00:51:19.285
00:52:38.530                             : en:00:52:38.530
00:58:00.352                             : en:00:58:00.352
01:01:09.624                             : en:01:01:09.624
01:03:40.275                             : en:01:03:40.275
01:06:44.334                             : en:01:06:44.334
01:08:01.911                             : en:01:08:01.911
01:11:09.640                             : en:01:11:09.640
01:17:08.624                             : en:01:17:08.624
01:21:45.317                             : en:01:21:45.317
01:27:47.512                             : en:01:27:47.512
01:31:28.274                             : en:01:31:28.274

x264

x264 [info]: frame I:1473  Avg QP:15.20  size:271904
x264 [info]: frame P:32747 Avg QP:17.29  size: 94429
x264 [info]: frame B:106490 Avg QP:19.27  size: 37855

Скриншоты

[Профиль] [ЛС]
Кто просматривает тему:

Показать сообщения:    

Текущее время: Сегодня 10:06

Часовой пояс: GMT



Вы не можете начинать темы
Вы не можете отвечать на сообщения
Вы не можете редактировать свои сообщения
Вы не можете удалять свои сообщения
Вы не можете голосовать в опросах
Вы не можете прикреплять файлы к сообщениям
Вы не можете скачивать файлы