Ночь в музее: Секрет гробницы / Night at the Museum: Secret of the Tomb (2014) BDRip 1080p | iTunes Russia

 
Автор Сообщение

sergej644 ®

Пол:

Стаж: 4 года 11 месяцев

Сообщений: 6043

Откуда: Soviet Union



Награды: Нет

Торрент-статистика

Создавать темы 04-Мар-2015 16:16

[Цитировать]

Информация о фильме
Название: Ночь в музее: Секрет гробницы
Оригинальное название: Night at the Museum: Secret of the Tomb
Год выхода: 2014
Жанр: фэнтези, комедия, приключения, семейный
Режиссер: Шон Леви
В ролях: Бен Стиллер, Робин Уильямс, Оуэн Уилсон, Стив Куган, Рики Джервэйс, Дэн Стивенс, Ребел Уилсон, Скайлер Джизондо, Рами Малек, Патрик Галлахер
О фильме: Ночной сторож Музея естественной истории в Нью-Йорке Ларри Дэйли в отчаянии: его друзья-экспонаты начинают странно себя вести, а всё потому, что оживляющая их древнеегипетская золотая пластина разрушается. Только отец фараона Ахкменра знает тайну магического артефакта, но вот беда — его мумия далеко, она выставлена в Британском музее естествознания! Команда любимых героев предпринимает беспрецедентное путешествие в Лондон. Они должны объединиться с британскими экспонатами и рискнуть всем, чтобы восстановить золотую пластину до того, как Ларри потеряет своих друзей навсегда.

Страна: США, Великобритания
Студия: 20th Century Fox Film Corporation, TSG Entertainment
Продолжительность: 01:37:48
Перевод: Профессиональный (полное дублирование) iTunes Russia
Файл
Формат: Matroska
Видео: 1920x1040 at 23.976 fps, x264@L4.1, ~13300 kbps avg
Aудио#1: Russian: 48 kHz, AC3, 3/2 (L,C,R,l,r) + LFE ch, ~384.00 kbps avg |Дубляж, iTunes Russia|
Aудио#2: English: 48 kHz, DTS-ES, 3/2 (L,C,R,l,r) + LFE ch, ~1509.00 kbps avg
Аудио#3: English: 48 kHz, AAC, 2/0 (L,R) ch, ~90.00 kbps avg |Commentary with Shawn Levy|
Субтитры: English, Romanian

MI

General
Unique ID : 185993909616089636624829011479888875661 (0x8BED1FBE7C497D739DBCF95407BF508D)
Complete name : Night.at.the.Museum.Secret.of.the.Tomb.2014.1080p.BluRay.x264.Rus.Eng.Subs-VietHD.mkv
Format : Matroska
Format version : Version 4 / Version 2
File size : 10.7 GiB
Duration : 1h 37mn
Overall bit rate : 15.6 Mbps
Movie name : Night.at.the.Museum.Secret.of.the.Tomb.2014..1080p.BluRay.DTS-ES.x264-VietHD
Encoded date : UTC 2015-03-02 19:25:50
Writing application : mkvmerge v6.5.0 ('Isn't she lovely') built on Oct 20 2013 12:50:05
Writing library : libebml v1.3.0 + libmatroska v1.4.1
Video
ID : 1
Format : AVC
Format/Info : Advanced Video Codec
Format profile : High@L4.1
Format settings, CABAC : Yes
Format settings, ReFrames : 4 frames
Codec ID : V_MPEG4/ISO/AVC
Duration : 1h 37mn
Width : 1 920 pixels
Height : 1 040 pixels
Display aspect ratio : 1.85:1
Frame rate mode : Constant
Frame rate : 23.976 fps
Color space : YUV
Chroma subsampling : 4:2:0
Bit depth : 8 bits
Scan type : Progressive
Writing library : x264 core 144 r0+2574 9abcd72 t_mod_Custom [8-bit@all X86_64]
Encoding settings : cabac=1 / ref=4 / deblock=1:-3:-3 / analyse=0x3:0x133 / me=umh / subme=10 / psy=1 / fade_compensate=0.00 / psy_rd=1.00:0.00 / mixed_ref=1 / me_range=24 / chroma_me=1 / trellis=2 / 8x8dct=1 / cqm=0 / deadzone=21,11 / fast_pskip=1 / chroma_qp_offset=-2 / threads=12 / lookahead_threads=2 / sliced_threads=0 / nr=0 / decimate=1 / interlaced=0 / bluray_compat=0 / constrained_intra=0 / fgo=0 / bframes=7 / b_pyramid=2 / b_adapt=2 / b_bias=0 / direct=3 / weightb=1 / open_gop=0 / weightp=2 / keyint=250 / keyint_min=23 / scenecut=40 / intra_refresh=0 / rc=crf / mbtree=0 / crf=17.8000 / qcomp=0.65 / qpmin=0:0:0 / qpmax=69:69:69 / qpstep=4 / ip_ratio=1.30 / pb_ratio=1.20 / aq=4:0.85 / aq-sensitivity=10.00 / aq-factor=1.00:1.00:1.00 / aq2=0 / aq3=0
Language : English
Default : Yes
Forced : No
Matrix coefficients : BT.709
Audio #1
ID : 2
Format : AC-3
Format/Info : Audio Coding 3
Mode extension : CM (complete main)
Format settings, Endianness : Big
Codec ID : A_AC3
Duration : 1h 37mn
Bit rate mode : Constant
Bit rate : 384 Kbps
Channel(s) : 6 channels
Channel positions : Front: L C R, Side: L R, LFE
Sampling rate : 48.0 KHz
Bit depth : 16 bits
Compression mode : Lossy
Stream size : 269 MiB (2%)
Language : Russian
Default : Yes
Forced : No
Audio #2
ID : 3
Format : DTS
Format/Info : Digital Theater Systems
Format profile : ES
Mode : 16
Format settings, Endianness : Big
Codec ID : A_DTS
Duration : 1h 37mn
Bit rate mode : Constant
Bit rate : 1 509 Kbps
Channel(s) : 6 channels
Channel positions : Front: L C R, Side: L R, LFE
Sampling rate : 48.0 KHz
Bit depth : 24 bits
Compression mode : Lossy
Stream size : 1.03 GiB (10%)
Language : English
Default : No
Forced : No
Audio #3
ID : 4
Format : AAC
Format/Info : Advanced Audio Codec
Format profile : LC
Codec ID : A_AAC
Duration : 1h 37mn
Channel(s) : 2 channels
Channel positions : Front: L R
Sampling rate : 48.0 KHz
Compression mode : Lossy
Delay relative to video : 20ms
Language : English
Default : No
Forced : No
Text #1
ID : 5
Format : UTF-8
Codec ID : S_TEXT/UTF8
Codec ID/Info : UTF-8 Plain Text
Language : English
Default : No
Forced : No
Text #2
ID : 6
Format : UTF-8
Codec ID : S_TEXT/UTF8
Codec ID/Info : UTF-8 Plain Text
Language : English
Default : No
Forced : No
Text #3
ID : 7
Format : UTF-8
Codec ID : S_TEXT/UTF8
Codec ID/Info : UTF-8 Plain Text
Language : Romanian
Default : No
Forced : No
Menu
00:00:00.000 : en:00:00:00.000
00:04:34.441 : en:00:04:34.441
00:06:29.347 : en:00:06:29.347
00:09:10.884 : en:00:09:10.884
00:13:18.131 : en:00:13:18.131
00:14:43.132 : en:00:14:43.132
00:18:01.038 : en:00:18:01.038
00:19:58.906 : en:00:19:58.906
00:22:27.388 : en:00:22:27.388
00:24:47.611 : en:00:24:47.611
00:26:26.084 : en:00:26:26.084
00:29:11.583 : en:00:29:11.583
00:32:03.505 : en:00:32:03.505
00:35:50.815 : en:00:35:50.815
00:39:48.761 : en:00:39:48.761
00:44:14.735 : en:00:44:14.735
00:51:19.285 : en:00:51:19.285
00:52:38.530 : en:00:52:38.530
00:58:00.352 : en:00:58:00.352
01:01:09.624 : en:01:01:09.624
01:03:40.275 : en:01:03:40.275
01:06:44.334 : en:01:06:44.334
01:08:01.911 : en:01:08:01.911
01:11:09.640 : en:01:11:09.640
01:17:08.624 : en:01:17:08.624
01:21:45.317 : en:01:21:45.317
01:27:47.512 : en:01:27:47.512
01:31:28.274 : en:01:31:28.274

Скриншоты

[Профиль] [ЛС]
Кто просматривает тему:

Показать сообщения:    

Текущее время: Сегодня 00:35

Часовой пояс: GMT



Вы не можете начинать темы
Вы не можете отвечать на сообщения
Вы не можете редактировать свои сообщения
Вы не можете удалять свои сообщения
Вы не можете голосовать в опросах
Вы не можете прикреплять файлы к сообщениям
Вы не можете скачивать файлы