Ночные стражи (2016) HDTVRip-AVC

 
Автор Сообщение

Razboynik ®

Пол:

Стаж: 1 месяц 20 дней

Сообщений: 33



Награды: Нет

Торрент-статистика

Создавать темы 18-Окт-2016 11:33

[Цитировать]

Оригинальное название: Ночные стражи
Год выпуска: 2016
Жанр: Фэнтези, боевик
Выпущено: Россия, Марс Медиа Энтертейнмент
Режиссер: Эмилис Веливис
В ролях: Иван Янковский, Любовь Аксёнова, Леонид Ярмольник, Михаил Евланов, Сабина Ахмедова, Константин Адаев, Юрий Ваксман, Алексей Дмитриев, Денис Бузин, Евгений Косырев
О фильме: Вам нравятся «Сумерки» и хочется увидеть кино любимого жанра с сюжетом из российской жизни? Эта картина для тех зрителей, которые и после «Темного мира: Равновесия» верят в русских кинематографистов, в то, что они подарят интересное городское фэнтези о парне-курьере и вампирше-красавице, волею судьбы оказавшихся в эпицентре борьбы вампирских кланов. Иван Янковский и Любовь Аксенова сумеют воплотить задуманное режиссером, на экране. В центре сюжета – Москва оккультная. Паша Смольников специально поступает в тайный отдел «Н», чтобы очистить столицу от нечисти. Тем более он хорошо знает, на что способны лешие, русалки, домовые и их сородичи, не относящиеся к породе людей. Однажды, когда Павел еще был курьером, ему довелось спасать в одном из отелей постоялицу Дану от преступников со сверхъестественными способностями. Позже парень выяснил: в городе начался передел власти между вампирскими семействами, и Дана – одна из них. Проверьте себя на прочность вместе с главным героем …

Качество: HDTVRip (AVC)
Видео: MPEG-4 AVC, 1815 Кбит/с, 1024x426
Аудио: AC3, 2 ch, 384 Кбит/с
Продолжительность: 01:35:27
Язык: Русский

MI

General
Unique ID : 197687394669262386419258593817014494094 (0x94B93511C0D4993EA6097E23102EE38E)
Complete name : E:Straghi.Hochi.2016.HDTVRip.AVC.ExKinoRay.mkv
Format : Matroska
Format version : Version 2
File size : 1.47 GiB
Duration : 1 h 35 min
Overall bit rate : 2 199 kb/s
Encoded date : UTC 2016-09-30 00:51:00
Writing application : mkvmerge v7.6.0 ('Garden of Dreams') 32bit built on Feb 11 2015 00:18:47
Writing library : libebml v1.3.1 + libmatroska v1.4.2
Video
ID : 1
Format : AVC
Format/Info : Advanced Video Codec
Format profile : High@L4.1
Format settings, CABAC : Yes
Format settings, ReFrames : 11 frames
Codec ID : V_MPEG4/ISO/AVC
Duration : 1 h 35 min
Bit rate : 1 815 kb/s
Width : 1 024 pixels
Height : 426 pixels
Display aspect ratio : 2.40:1
Frame rate mode : Constant
Frame rate : 25.000 FPS
Color space : YUV
Chroma subsampling : 4:2:0
Bit depth : 8 bits
Scan type : Progressive
Bits/(Pixel*Frame) : 0.166
Stream size : 1.18 GiB (81%)
Writing library : x264 core 144 r2525 40bb568
Encoding settings : cabac=1 / ref=11 / deblock=1:-3:-3 / analyse=0x3:0x113 / me=umh / subme=10 / psy=1 / psy_rd=1.05:0.15 / mixed_ref=1 / me_range=32 / chroma_me=1 / trellis=2 / 8x8dct=1 / cqm=0 / deadzone=21,11 / fast_pskip=0 / chroma_qp_offset=-3 / threads=12 / lookahead_threads=2 / sliced_threads=0 / nr=0 / decimate=0 / interlaced=0 / bluray_compat=0 / constrained_intra=0 / bframes=9 / b_pyramid=2 / b_adapt=2 / b_bias=0 / direct=3 / weightb=1 / open_gop=0 / weightp=2 / keyint=250 / keyint_min=25 / scenecut=40 / intra_refresh=0 / rc_lookahead=40 / rc=2pass / mbtree=0 / bitrate=1815 / ratetol=1.0 / qcomp=0.60 / qpmin=0 / qpmax=51 / qpstep=4 / cplxblur=20.0 / qblur=0.5 / vbv_maxrate=50000 / vbv_bufsize=62500 / nal_hrd=none / filler=0 / ip_ratio=1.40 / pb_ratio=1.30 / aq=1:1.00
Default : Yes
Forced : No
Color range : Limited
Color primaries : BT.709
Transfer characteristics : BT.709
Matrix coefficients : BT.709
Audio
ID : 2
Format : AC-3
Format/Info : Audio Coding 3
Mode extension : CM (complete main)
Format settings, Endianness : Big
Codec ID : A_AC3
Duration : 1 h 35 min
Bit rate mode : Constant
Bit rate : 384 kb/s
Channel(s) : 2 channels
Channel positions : Front: L R
Sampling rate : 48.0 kHz
Frame rate : 31.250 FPS (1536 spf)
Compression mode : Lossy
Stream size : 262 MiB (17%)
Default : Yes
Forced : No
[Профиль] [ЛС]

Создавать темы 18-Окт-2016 11:33 (спустя 48 секунд)

Топик был перенесен из форума Фильмы 2016 года в форум Фильмы 2016 года
Russian Mafia
 
Кто просматривает тему:

Форум Тема Автор Размер
Apple Mac OS X (ОС и ПО) [SD] Умный будильник: фазы сна и запись ночных звуков / Smart Alarm Clock: sleep cycles & night sounds recording [8.1.2, Здоровье и фитнес, iOS 6.0, RUS] reversefile 49 MB
Фильмы 2011 года Возвращение в дом ночных призраков / Return to House on Haunted Hill (Виктор Гарсия / Víctor García) [2007, США, ужасы, триллер, BDRip] MVO (ТНТ) + Original Eng TorrentFilm 1.45 GB
Документальные HD Восхождение животных: Триумф позвоночных / BBC. Rise of Animals: Triumph of the Vertebrates (Дэвид Ли / David Lee) [2013, документальный, BDRip 1080p] TorrentFilm 4.1 GB
Фильмы 2016 года Крылья / Ночные стражи (2016) HDTVRip Шкипер 746 MB
3D Мультфильмы Легенды ночных стражей в 3Д / Legend of the Guardians: The Owls of Ga’Hoole 3D (Зак Снайдер / Zack Snyder) [2010 г., фэнтези, приключения, мультфильм, Blu-Ray Disc 1080p (Custom)] BD3D BOSS 37.54 GB
Фильмы 2013 года Ночные движения / Night Moves (2013) HDRip| Чадов BOSS 2.05 GB
Отечественные мультфильмы Ночные капитаны (Ирина Гурвич) [1978, рисованный мультфильм, DVB] TorrentFilm 215 MB
Фильмы 2006-2008 года Ночные небеса / Night Skies (2007) WEB-DLRip от k.e.n | P2 Russian Mafia 1.46 GB
Показать сообщения:    

Текущее время: Сегодня 14:38

Часовой пояс: GMT



Вы не можете начинать темы
Вы не можете отвечать на сообщения
Вы не можете редактировать свои сообщения
Вы не можете удалять свои сообщения
Вы не можете голосовать в опросах
Вы не можете прикреплять файлы к сообщениям
Вы не можете скачивать файлы