Ночные стражи (2016) WEB-DLRip | iTunes

 
Автор Сообщение

BOSS ®

Пол:

Стаж: 2 года 1 месяц

Сообщений: 3719

Откуда: ODESSA



Награды: 20 (Подробнее)

Mega Seeder 4 (Количество: 1) Top Releaser 3 (Количество: 1) Mega Releaser 2 (Количество: 1)
Торрент-статистика

Создавать темы 06-Окт-2016 04:48

[Цитировать]

Информация о фильме
Название: Ночные стражи
Год выпуска: 2016
Жанр: Фэнтези, боевик
Режиссер: Эмилис Веливис
В ролях: Иван Янковский, Любовь Аксёнова, Леонид Ярмольник, Михаил Евланов, Сабина Ахмедова, Константин Адаев, Юрий Ваксман, Алексей Дмитриев, Денис Бузин, Евгений Косырев
О фильме:
Оборотни, упыри и ведьмы — существуют. Если вы до сих пор не сталкивались с ними, то это заслуга отдела по надзору за представителями альтернативной жизни. Обычный курьер случайно становится свидетелем зачистки нечисти в одном из столичных отелей, после чего получает новую работу. Сотрудники отдела «Н» не бессмертны, но даже вампирам они не по зубам.

Страна: Россия
Студия: Марс Медиа Энтертейнмент
Продолжительность: 01:35:27
Перевод: Не требуется (русский) | iTunes
Файл
Формат: AVI
Качество: WEB-DLRip
Видео: XviD build 73, 720x304 (2.35:1), 25.000 fps, 1756 Kbps (0.321 bit/pixel)
Звук: 48.0 kHz, AC3 Dolby Digital, 5/1 (L C R, Side: L R, LFE) ch, 384 kbps

МедиаИнфо

General
Complete name : Nochnye.Strazhi.2016.XviD.WEB-DLRip.by.GeneralFilm.avi
Format : AVI
Format/Info : Audio Video Interleave
File size : 1.45 GiB
Duration : 1h 36mn
Overall bit rate : 2 149 Kbps
Writing application : VirtualDubMod 1.5.10.3 | www.virtualdub-fr.org || (build 2550/release)
Writing library : VirtualDubMod build 2550/release
Video
ID : 0
Format : MPEG-4 Visual
Format profile : Advanced Simple@L5
Format settings, BVOP : 1
Format settings, QPel : No
Format settings, GMC : No warppoints
Format settings, Matrix : Custom
Codec ID : XVID
Codec ID/Hint : XviD
Duration : 1h 36mn
Bit rate : 1 756 Kbps
Width : 720 pixels
Height : 304 pixels
Display aspect ratio : 2.35:1
Frame rate : 25.000 fps
Color space : YUV
Chroma subsampling : 4:2:0
Bit depth : 8 bits
Scan type : Progressive
Compression mode : Lossy
Bits/(Pixel*Frame) : 0.321
Stream size : 1.19 GiB (82%)
Writing library : XviD 73
Audio
ID : 1
Format : AC-3
Format/Info : Audio Coding 3
Mode extension : CM (complete main)
Format settings, Endianness : Big
Codec ID : 2000
Duration : 1h 36mn
Bit rate mode : Constant
Bit rate : 384 Kbps
Channel(s) : 6 channels
Channel positions : Front: L C R, Side: L R, LFE
Sampling rate : 48.0 KHz
Frame rate : 31.250 fps (1536 spf)
Compression mode : Lossy
Stream size : 266 MiB (18%)
Alignment : Split accross interleaves
Interleave, duration : 40 ms (1.00 video frame)
Interleave, preload duratio : 500 ms

Скриншоты




[Профиль] [ЛС]
Кто просматривает тему:

Форум Тема Автор Размер
Apple Mac OS X (ОС и ПО) [SD] Умный будильник: фазы сна и запись ночных звуков / Smart Alarm Clock: sleep cycles & night sounds recording [8.1.2, Здоровье и фитнес, iOS 6.0, RUS] reversefile 49 MB
Фильмы 2011 года Возвращение в дом ночных призраков / Return to House on Haunted Hill (Виктор Гарсия / Víctor García) [2007, США, ужасы, триллер, BDRip] MVO (ТНТ) + Original Eng TorrentFilm 1.45 GB
Документальные HD Восхождение животных: Триумф позвоночных / BBC. Rise of Animals: Triumph of the Vertebrates (Дэвид Ли / David Lee) [2013, документальный, BDRip 1080p] TorrentFilm 4.1 GB
Фильмы 2016 года Крылья / Ночные стражи (2016) HDTVRip Шкипер 746 MB
3D Мультфильмы Легенды ночных стражей в 3Д / Legend of the Guardians: The Owls of Ga’Hoole 3D (Зак Снайдер / Zack Snyder) [2010 г., фэнтези, приключения, мультфильм, Blu-Ray Disc 1080p (Custom)] BD3D BOSS 37.54 GB
Фильмы 2013 года Ночные движения / Night Moves (2013) HDRip| Чадов BOSS 2.05 GB
Отечественные мультфильмы Ночные капитаны (Ирина Гурвич) [1978, рисованный мультфильм, DVB] TorrentFilm 215 MB
Фильмы 2006-2008 года Ночные небеса / Night Skies (2007) WEB-DLRip от k.e.n | P2 Russian Mafia 1.46 GB
Показать сообщения:    

Текущее время: Сегодня 18:42

Часовой пояс: GMT



Вы не можете начинать темы
Вы не можете отвечать на сообщения
Вы не можете редактировать свои сообщения
Вы не можете удалять свои сообщения
Вы не можете голосовать в опросах
Вы не можете прикреплять файлы к сообщениям
Вы не можете скачивать файлы