Ночные капитаны (Ирина Гурвич) [1978, рисованный мультфильм, DVB]

 
Автор Сообщение

TorrentFilm ®

Пол:

Стаж: 2 года

Сообщений: 7741



Награды: Нет

Торрент-статистика

Создавать темы 03-Янв-2016 00:04

[Цитировать]

Ночные капитаны
Жанр: рисованный мультфильм
Год выпуска: 1978
Продолжительность: 00:09:16
Режиссёр: Ирина Гурвич
Описание: мультфильм состоит из двух сюжетов: "Четыре коня" о том, что нужно учить детей держаться в седле и "Ночные капитаны" - фантазия ребят на тему космос ...
Доп. информация:

Релиз группы:
Трансляция спутникового канала: "Карусель"
Качество видео: DVB
Формат видео: MPEG-PS
Видео: MPEG2 Video, 720x576, 25 fps, 3000 kbps
Аудио: MPEG Audio, 2 сh, 48 kHz, 192 kbps

MediaInfo

D:\Ночные капитаны. (1978)_DVB by SLuMeP.mpg
General
Complete name : D:\Ночные капитаны. (1978)_DVB by SLuMeP.mpg
Format : MPEG-PS
File size : 215 MiB
Duration : 9mn 16s
Overall bit rate mode : Variable
Overall bit rate : 3 234 Kbps
Video #224
ID : 224 (0xE0)
Format : MPEG Video
Format version : Version 2
Format profile : Main@Main
Format settings, BVOP : Yes
Format settings, Matrix : Custom
Duration : 9mn 16s
Bit rate mode : Variable
Bit rate : 2 977 Kbps
Maximum bit rate : 5 000 Kbps
Width : 720 pixels
Height : 576 pixels
Display aspect ratio : 4:3
Frame rate : 25.000 fps
Standard : PAL
Color space : YUV
Chroma subsampling : 4:2:0
Bit depth : 8 bits
Scan type : Interlaced
Scan order : Top Field First
Compression mode : Lossy
Bits/(Pixel*Frame) : 0.287
Stream size : 198 MiB (92%)
Audio #192
ID : 192 (0xC0)
Format : MPEG Audio
Format version : Version 1
Format profile : Layer 2
Duration : 9mn 16s
Bit rate mode : Constant
Bit rate : 192 Kbps
Channel(s) : 2 channels
Sampling rate : 48.0 KHz
Compression mode : Lossy
Stream size : 12.7 MiB (6%)

Скриншоты

[Профиль] [ЛС]
Кто просматривает тему:

Форум Тема Автор Размер
Apple Mac OS X (ОС и ПО) [SD] Умный будильник: фазы сна и запись ночных звуков / Smart Alarm Clock: sleep cycles & night sounds recording [8.1.2, Здоровье и фитнес, iOS 6.0, RUS] reversefile 49 MB
Фильмы 2011 года Возвращение в дом ночных призраков / Return to House on Haunted Hill (Виктор Гарсия / Víctor García) [2007, США, ужасы, триллер, BDRip] MVO (ТНТ) + Original Eng TorrentFilm 1.45 GB
Документальные HD Восхождение животных: Триумф позвоночных / BBC. Rise of Animals: Triumph of the Vertebrates (Дэвид Ли / David Lee) [2013, документальный, BDRip 1080p] TorrentFilm 4.1 GB
Фильмы 2016 года Крылья / Ночные стражи (2016) HDTVRip Шкипер 746 MB
3D Мультфильмы Легенды ночных стражей в 3Д / Legend of the Guardians: The Owls of Ga’Hoole 3D (Зак Снайдер / Zack Snyder) [2010 г., фэнтези, приключения, мультфильм, Blu-Ray Disc 1080p (Custom)] BD3D BOSS 37.54 GB
Фильмы 2013 года Ночные движения / Night Moves (2013) HDRip| Чадов BOSS 2.05 GB
Фильмы 2006-2008 года Ночные небеса / Night Skies (2007) WEB-DLRip от k.e.n | P2 Russian Mafia 1.46 GB
Наши концерты Ночные снайперы и Диана Арбенина - Нашествие 2015 (2015) WEBRip 720p sergej644 1.34 GB
Показать сообщения:    

Текущее время: Сегодня 00:14

Часовой пояс: GMT



Вы не можете начинать темы
Вы не можете отвечать на сообщения
Вы не можете редактировать свои сообщения
Вы не можете удалять свои сообщения
Вы не можете голосовать в опросах
Вы не можете прикреплять файлы к сообщениям
Вы не можете скачивать файлы