Ночной беглец / Run All Night (2015) BDRip 720p | D, A | Лицензия

 
Автор Сообщение

достали все ®

Пол:

Стаж: 1 год 8 месяцев

Сообщений: 6515



Награды: 12 (Подробнее)

Mega Releaser 1 (Количество: 1) Mega Seeder 5 (Количество: 1) Mega Seeder 2 (Количество: 1)
Торрент-статистика

Создавать темы 11-Июл-2015 02:41

[Цитировать]

Информация о фильме
Название: Ночной беглец
Оригинальное название: Run All Night
Год выпуска: 2015
Жанр: Боевик, триллер, драма, криминал, детектив
Выпущено: США, Energy Entertainment, RatPac-Dune Entertainment, Vertigo Entertainment
Режиссер: Жауме Коллет-Серра
В ролях: Лиам Нисон, Юэль Киннаман, Коммон, Эд Харрис, Бойд Холбрук, Брюс МакГилл, Дженезис Родригез, Винсент Д`Онофрио, Луис Смит, Бо Напп, Патриция Кэлембер, Дэниэл Стюарт-Шерман, Джеймс Мартинес, Радивойе Буквич, Тони Наумовски, Лиза Бренч, Холт МакКэллани, Обри Джозеф, Джулия Чичиари, Керрингтон Мейер
О фильме: Бруклинский гангстер и наемный убийца со стажем Джимми Конлон, некогда известный как Могильщик, знавал и лучшие дни. Давнего друга главы мафиозного клана Шона Магуайера в его пятьдесят пять преследуют грехи прошлого и настырный полицейский, который все эти тридцать лет всего на шаг отставал от Джимми. И, похоже, единственное свое утешение Джимми находит на дне бутылки виски. Но когда мишенью мафии становится его сын Майк, с которым он давным-давно потерял связь, Джимми должен сделать выбор между преступным кланом и своей настоящей семьей, которую он оставил далеко в прошлом. Он пускается в бега вместе с Майком, и единственная возможность искупить вину за ошибки прошлого – уберечь сына от той судьбы, которая, он уверен, предначертана ему, – взгляд в лицо смерти через дуло пистолета. Спрятаться негде, и у Джимми есть всего одна ночь, чтобы понять, кому стоит хранить верность и сможет ли он все исправить.
Файл
Качество: BDRip (720p)
Видео: 1280x534 at 23.976 fps, x264, ~7500 kbps avg
Aудио#1: Russian: 48 kHz, AC3, 3/2 (L,C,R,l,r) + LFE ch, ~640.00 kbps avg |Дубляж, Blu-ray CEE|
Аудио#2: Russian: 48 kHz, DTS, 3/2 (L,C,R,l,r) + LFE ch, ~1536.00 kbps avg |Одноголосый закадровый, Д.Есарев|
Аудио#3: Russian: 48 kHz, DTS, 3/2 (L,C,R,l,r) + LFE ch, ~1536.00 kbps avg |Одноголосый закадровый, М.Яроцкий (kyberpunk)|
Aудио#4: English: 48 kHz, DTS, 3/2 (L,C,R,l,r) + LFE ch, ~1536.00 kbps avg
Субтитры: Russian (Forced, iTunes), Russian (iTunes), Ukrainian (iTunes), English (SDH-COLORED)

MI

Общее
Уникальный идентификатор : 198204520282272098083732437313676126601 (0x951CCD549ECCD4F3BCB5BB964C942989)
Полное имя : C:Run.All.Night.2015.720p.BluRay.DTS.3xRus.Eng.HDCLUB.mkv
Формат : Matroska
Версия формата : Version 2
Размер файла : 10,1 Гбайт
Продолжительность : 1 ч. 54 м.
Общий поток : 12,7 Мбит/сек
Название фильма : Run All Night (2015) - Release for HDCLUB
Дата кодирования : UTC 2015-07-10 21:19:36
Программа кодирования : mkvmerge v3.4.0 ('Rapunzel') built on May 15 2010 09:38:20
Библиотека кодирования : libebml v0.8.0 + libmatroska v0.9.0
Видео
Идентификатор : 1
Формат : AVC
Формат/Информация : Advanced Video Codec
Профиль формата : High@L4.1
Параметр CABAC формата : Да
Параметр ReFrames формата : 12 кадров
Идентификатор кодека : V_MPEG4/ISO/AVC
Продолжительность : 1 ч. 54 м.
Битрейт : 7500 Кбит/сек
Ширина : 1280 пикселей
Высота : 534 пикселя
Соотношение сторон : 2,40:1
Режим частоты кадров : Постоянный
Частота кадров : 23,976 кадра/сек
Цветовое пространство : YUV
Субдискретизация насыщенности : 4:2:0
Битовая глубина : 8 бит
Тип развёртки : Прогрессивная
Бит/(Пиксели*Кадры) : 0.458
Размер потока : 5,79 Гбайт (57%)
Заголовок : Run All Night (2015) - Release for HDCLUB
Библиотека кодирования : x264 core 146 r2538kMod 121396c
Настройки программы : cabac=1 / ref=12 / deblock=1:-3:-3 / analyse=0x3:0x133 / me=umh / subme=10 / psy=1 / fade_compensate=0.00 / psy_rd=1.00:0.00 / mixed_ref=1 / me_range=64 / chroma_me=1 / trellis=2 / 8x8dct=1 / cqm=0 / deadzone=21,11 / fast_pskip=0 / chroma_qp_offset=-2 / threads=12 / lookahead_threads=2 / sliced_threads=0 / nr=0 / decimate=0 / interlaced=0 / bluray_compat=0 / constrained_intra=0 / fgo=0 / bframes=8 / b_pyramid=2 / b_adapt=2 / b_bias=0 / direct=3 / weightb=1 / open_gop=0 / weightp=2 / keyint=250 / keyint_min=23 / scenecut=40 / intra_refresh=0 / rc_lookahead=40 / rc=2pass / mbtree=0 / bitrate=7500 / ratetol=1.0 / qcomp=0.75 / qpmin=0 / qpmax=69 / qpstep=4 / cplxblur=20.0 / qblur=0.5 / vbv_maxrate=50000 / vbv_bufsize=62500 / nal_hrd=none / filler=0 / ip_ratio=1.30 / pb_ratio=1.20 / aq=3:0.60
Язык : English
Default : Да
Forced : Нет
Цветовой диапазон : Limited
Основные цвета : BT.709
Характеристики трансфера : BT.709
Коэффициенты матрицы : BT.709
Аудио #1
Идентификатор : 2
Формат : AC-3
Формат/Информация : Audio Coding 3
Расширение режима : CM (complete main)
Параметр Endianness формата : Big
Идентификатор кодека : A_AC3
Продолжительность : 1 ч. 54 м.
Вид битрейта : Постоянный
Битрейт : 640 Кбит/сек
Каналы : 6 каналов
Расположение каналов : Front: L C R, Side: L R, LFE
Частота : 48,0 КГц
Метод сжатия : С потерями
Размер потока : 523 Мбайт (5%)
Заголовок : AC3 5.1 @ 640 kbps - DUB, Blu-ray CEE
Язык : Russian
Default : Да
Forced : Нет
Аудио #2
Идентификатор : 3
Формат : DTS
Формат/Информация : Digital Theater Systems
Режим : 16
Параметр Endianness формата : Big
Идентификатор кодека : A_DTS
Продолжительность : 1 ч. 54 м.
Вид битрейта : Постоянный
Битрейт : 1509 Кбит/сек
Каналы : 6 каналов
Расположение каналов : Front: L C R, Side: L R, LFE
Частота : 48,0 КГц
Битовая глубина : 24 бит
Метод сжатия : С потерями
Размер потока : 1,21 Гбайт (12%)
Заголовок : DTS 5.1 @ 1536 kbps - AVO, D.Esarev
Язык : Russian
Default : Нет
Forced : Нет
Аудио #3
Идентификатор : 4
Формат : DTS
Формат/Информация : Digital Theater Systems
Режим : 16
Параметр Endianness формата : Big
Идентификатор кодека : A_DTS
Продолжительность : 1 ч. 54 м.
Вид битрейта : Постоянный
Битрейт : 1509 Кбит/сек
Каналы : 6 каналов
Расположение каналов : Front: L C R, Side: L R, LFE
Частота : 48,0 КГц
Битовая глубина : 24 бит
Метод сжатия : С потерями
Размер потока : 1,21 Гбайт (12%)
Заголовок : DTS 5.1 @ 1536 kbps - AVO, M.Yarockiy (kyberpunk)
Язык : Russian
Default : Нет
Forced : Нет
Аудио #4
Идентификатор : 5
Формат : DTS
Формат/Информация : Digital Theater Systems
Режим : 16
Параметр Endianness формата : Big
Идентификатор кодека : A_DTS
Продолжительность : 1 ч. 54 м.
Вид битрейта : Постоянный
Битрейт : 1509 Кбит/сек
Каналы : 6 каналов
Расположение каналов : Front: L C R, Side: L R, LFE
Частота : 48,0 КГц
Битовая глубина : 24 бит
Метод сжатия : С потерями
Задержка видео : 11 мс.
Размер потока : 1,21 Гбайт (12%)
Заголовок : DTS 5.1 @ 1536 kbps
Язык : English
Default : Нет
Forced : Нет
Текст #1
Идентификатор : 6
Формат : UTF-8
Идентификатор кодека : S_TEXT/UTF8
Идентификатор кодека/Информация : UTF-8 Plain Text
Заголовок : Forced, iTunes
Язык : Russian
Default : Да
Forced : Нет
Текст #2
Идентификатор : 7
Формат : UTF-8
Идентификатор кодека : S_TEXT/UTF8
Идентификатор кодека/Информация : UTF-8 Plain Text
Заголовок : iTunes
Язык : Russian
Default : Нет
Forced : Нет
Текст #3
Идентификатор : 8
Формат : UTF-8
Идентификатор кодека : S_TEXT/UTF8
Идентификатор кодека/Информация : UTF-8 Plain Text
Заголовок : iTunes
Язык : Ukrainian
Default : Нет
Forced : Нет
Текст #4
Идентификатор : 9
Формат : UTF-8
Идентификатор кодека : S_TEXT/UTF8
Идентификатор кодека/Информация : UTF-8 Plain Text
Заголовок : SDH-COLORED
Язык : English
Default : Нет
Forced : Нет
Меню
00:00:00.000 : en:00:00:00.000
00:09:02.792 : en:00:09:02.792
00:20:32.273 : en:00:20:32.273
00:29:24.346 : en:00:29:24.346
00:41:17.558 : en:00:41:17.558
00:50:29.818 : en:00:50:29.818
01:01:35.942 : en:01:01:35.942
01:10:56.794 : en:01:10:56.794
01:19:52.121 : en:01:19:52.121
01:34:14.440 : en:01:34:14.440
01:39:08.776 : en:01:39:08.776
01:48:38.387 : en:01:48:38.387

Скриншоты



[Профиль] [ЛС]
Показать сообщения:    

Текущее время: Сегодня 20:03

Часовой пояс: GMT



Вы не можете начинать темы
Вы не можете отвечать на сообщения
Вы не можете редактировать свои сообщения
Вы не можете удалять свои сообщения
Вы не можете голосовать в опросах
Вы не можете прикреплять файлы к сообщениям
Вы не можете скачивать файлы