Ночной беглец / Run All Night (2015) BDRip 1080p | Чистый звук

 
Автор Сообщение

sergej644 ®

Пол:

Стаж: 4 года 11 месяцев

Сообщений: 6043

Откуда: Soviet Union



Награды: Нет

Торрент-статистика

Создавать темы 17-Июн-2015 21:24

[Цитировать]

Информация о фильме
Название: Ночной беглец
Оригинальное название: Run All Night
Год выпуска: 2015
Жанр: Боевик, триллер, драма, криминал, детектив
Выпущено: США, Energy Entertainment, RatPac-Dune Entertainment, Vertigo Entertainment
Режиссер: Жауме Коллет-Серра
В ролях: Лиам Нисон, Юэль Киннаман, Коммон, Эд Харрис, Бойд Холбрук, Брюс МакГилл, Дженезис Родригез, Винсент Д`Онофрио, Луис Смит, Бо Напп, Патриция Кэлембер, Дэниэл Стюарт-Шерман, Джеймс Мартинес, Радивойе Буквич, Тони Наумовски, Лиза Бренч, Холт МакКэллани, Обри Джозеф, Джулия Чичиари, Керрингтон Мейер
О фильме: Бруклинский гангстер и наемный убийца со стажем Джимми Конлон, некогда известный как Могильщик, знавал и лучшие дни. Давнего друга главы мафиозного клана Шона Магуайера в его пятьдесят пять преследуют грехи прошлого и настырный полицейский, который все эти тридцать лет всего на шаг отставал от Джимми. И, похоже, единственное свое утешение Джимми находит на дне бутылки виски. Но когда мишенью мафии становится его сын Майк, с которым он давным-давно потерял связь, Джимми должен сделать выбор между преступным кланом и своей настоящей семьей, которую он оставил далеко в прошлом. Он пускается в бега вместе с Майком, и единственная возможность искупить вину за ошибки прошлого – уберечь сына от той судьбы, которая, он уверен, предначертана ему, – взгляд в лицо смерти через дуло пистолета. Спрятаться негде, и у Джимми есть всего одна ночь, чтобы понять, кому стоит хранить верность и сможет ли он все исправить.
Файл
Качество: BDRip (1080p)
Видео: MPEG-4 AVC, 11700 Кбит/с, 1920x800
Аудио: Русский (AC3, 2 ch, 384 Кбит/с), английский (DTS, 6 ch, 1509 Кбит/с)
Размер: 11.05 ГБ
Продолжительность: 01:54:18
Перевод: Дублированный [чистый звук]
Субтитры: Английские

MI

Общее
Уникальный идентификатор : 210881180564514954985875458274191077741 (0x9EA63CEFE83D1D6ABF92D9D38AD9F16D)
Полное имя : C:Run.All.Night.2015.1080p..mkv
Формат : Matroska
Версия формата : Version 2
Размер файла : 11,0 Гбайт
Продолжительность : 1 ч. 54 м.
Общий поток : 13,8 Мбит/сек
Название фильма : Run All Night
Дата кодирования : UTC 2015-06-04 05:33:13
Программа кодирования : mkvmerge v7.9.0 ('Birds') 64bit
Библиотека кодирования : libebml v1.3.1 + libmatroska v1.4.2
Видео
Идентификатор : 1
Формат : AVC
Формат/Информация : Advanced Video Codec
Профиль формата : High@L4.1
Параметр CABAC формата : Да
Параметр ReFrames формата : 5 кадров
Идентификатор кодека : V_MPEG4/ISO/AVC
Продолжительность : 1 ч. 54 м.
Битрейт : 11,7 Мбит/сек
Ширина : 1920 пикселей
Высота : 800 пикселей
Соотношение сторон : 2,40:1
Режим частоты кадров : Постоянный
Частота кадров : 23,976 кадра/сек
Цветовое пространство : YUV
Субдискретизация насыщенности : 4:2:0
Битовая глубина : 8 бит
Тип развёртки : Прогрессивная
Бит/(Пиксели*Кадры) : 0.317
Размер потока : 9,31 Гбайт (84%)
Библиотека кодирования : x264 core 146 r2538kMod 121396c
Настройки программы : cabac=1 / ref=5 / deblock=1:-3:-2 / analyse=0x3:0x113 / me=umh / subme=10 / psy=1 / fade_compensate=0.00 / psy_rd=1.07:0.04 / mixed_ref=1 / me_range=48 / chroma_me=1 / trellis=2 / 8x8dct=1 / cqm=0 / deadzone=21,11 / fast_pskip=0 / chroma_qp_offset=-3 / threads=12 / lookahead_threads=2 / sliced_threads=0 / nr=0 / decimate=1 / interlaced=0 / bluray_compat=0 / constrained_intra=0 / fgo=0 / bframes=8 / b_pyramid=2 / b_adapt=2 / b_bias=0 / direct=3 / weightb=1 / open_gop=0 / weightp=2 / keyint=240 / keyint_min=23 / scenecut=40 / intra_refresh=0 / rc_lookahead=120 / rc=crf / mbtree=1 / crf=18.0000 / qcomp=0.60 / qpmin=0 / qpmax=37 / qpstep=4 / vbv_maxrate=30000 / vbv_bufsize=38000 / crf_max=0.0 / nal_hrd=none / filler=0 / ip_ratio=1.40 / aq=3:0.85
Язык : English
Default : Да
Forced : Нет
Цветовой диапазон : Limited
Основные цвета : BT.709
Характеристики трансфера : BT.709
Коэффициенты матрицы : BT.709
Аудио #1
Идентификатор : 2
Формат : AC-3
Формат/Информация : Audio Coding 3
Расширение режима : CM (complete main)
Параметр Endianness формата : Big
Идентификатор кодека : A_AC3
Продолжительность : 1 ч. 54 м.
Вид битрейта : Постоянный
Битрейт : 384 Кбит/сек
Каналы : 2 канала
Расположение каналов : Front: L R
Частота : 48,0 КГц
Метод сжатия : С потерями
Размер потока : 314 Мбайт (3%)
Язык : Russian
Default : Да
Forced : Нет
Аудио #2
Идентификатор : 3
Формат : DTS
Формат/Информация : Digital Theater Systems
Режим : 16
Параметр Endianness формата : Big
Идентификатор кодека : A_DTS
Продолжительность : 1 ч. 54 м.
Вид битрейта : Постоянный
Битрейт : 1509 Кбит/сек
Каналы : 6 каналов
Расположение каналов : Front: L C R, Side: L R, LFE
Частота : 48,0 КГц
Битовая глубина : 24 бит
Метод сжатия : С потерями
Размер потока : 1,21 Гбайт (11%)
Язык : English
Default : Нет
Forced : Нет
Текст
Идентификатор : 4
Формат : UTF-8
Идентификатор кодека : S_TEXT/UTF8
Идентификатор кодека/Информация : UTF-8 Plain Text
Язык : English
Default : Нет
Forced : Нет
Меню
00:00:00.000 : en:00:00:00.000
00:09:02.792 : en:00:09:02.792
00:20:32.273 : en:00:20:32.273
00:29:24.346 : en:00:29:24.346
00:41:17.558 : en:00:41:17.558
00:50:29.818 : en:00:50:29.818
01:01:35.942 : en:01:01:35.942
01:10:56.794 : en:01:10:56.794
01:19:52.121 : en:01:19:52.121
01:34:14.440 : en:01:34:14.440
01:39:08.776 : en:01:39:08.776
01:48:38.387 : en:01:48:38.387

Скриншоты


[Профиль] [ЛС]
Показать сообщения:    

Текущее время: Сегодня 16:43

Часовой пояс: GMT



Вы не можете начинать темы
Вы не можете отвечать на сообщения
Вы не можете редактировать свои сообщения
Вы не можете удалять свои сообщения
Вы не можете голосовать в опросах
Вы не можете прикреплять файлы к сообщениям
Вы не можете скачивать файлы