Ночной администратор / The Night Manager [S01] (2016) WEB-DL 720p | Jaskier

 
Автор Сообщение

достали все ®

Пол:

Стаж: 1 год 8 месяцев

Сообщений: 6620



Награды: 12 (Подробнее)

Mega Releaser 3 (Количество: 1) Top Releaser 2 (Количество: 1) За внесенный вклад в развитие сайта (Количество: 1)
Торрент-статистика

Создавать темы 24-Мар-2016 05:22

[Цитировать]

Информация о фильме
Название: The Night Manager
Оригинальное название: Ночной администратор
Год выхода: 2016
Жанр: Боевик, триллер, драма
Режиссер: Сюзанна Бир
В ролях: Том Хиддлстон, Хью Лори, Элизабет Дебики, Оливия Колман, Том Холландер, Кэтерин Келли, Майкл Нардон, Алистэр Петри, Джонатан Арис, Дэвид Хэрвуд
Описание: Бывший британский солдат Джонатан Пайн (Том Хиддлстон) нанят сотрудницей разведки Бёрр (Оливия Колман). Между двумя разведывательными организациями, базирующимися в Уайтхолле и Вашингтоне, существует альянс, который отправляет Пайна в синдикат по торговле оружием. Он должен втереться в доверие торговца оружием Ричарда Онслоу-Ропера (Хью Лори), его девушки Джед (Элизабет Дебики) и подручного Коркорана (Том Холландер).
Доп. информация: Тома Хиддлстона озвучивает прикреплённый голос из дубляжей.

Страна: США
Продолжительность: ~00:55:00
Перевод: Профессиональный (многоголосый закадровый) студия Jaskier
Файл
Кодек: AVC
Качество: WEB-DL 720p, 5-6 серия: BDRip 720p
Видео: AVC, 916x718 (16:9), 25fps, ~3800kbps ~0.221 bit/pixel, 5-6 серия: MPEG4 Video (H264) 1280x720 25fps ~5000Kbps ~0.221 bit/pixel
Звук:
Аудио 1 (русская дорожка): Dolby AC3, 48 kHz, 6ch, 384 kbps
Аудио 2 (оригинал): Dolby AC3, 48 kHz, 6ch, 384 kbps, 5-6 серия: DTS 48000Hz 6ch 1500Kbps
Семпл

Скриншоты

Media Info 5 и 6 серии

General
Unique ID : 184650044196714323011809921201987060811 (0x8AEA4E1039D5C9658129A1F683AB044B)
Complete name : Z:HDThe Night Manager. Season 1 (WEB-DL l 720p l Jaskier)The.Night.Manager.S01E05.720p.BDRip.DD5.1.H.264-JASKiER.mkv
Format : Matroska
Format version : Version 1
File size : 2.80 GiB
Duration : 57mn 24s
Overall bit rate : 6 985 Kbps
Encoded date : UTC 2016-03-23 23:39:17
Writing application : mkvmerge v2.3.0 ('Freak U') built on Sep 8 2008 18:32:16
Writing library : libebml v0.7.7 + libmatroska v0.8.1
Video
ID : 1
Format : AVC
Format/Info : Advanced Video Codec
Format profile : High@L4.1
Format settings, CABAC : Yes
Format settings, ReFrames : 5 frames
Codec ID : V_MPEG4/ISO/AVC
Duration : 57mn 24s
Bit rate : 5 086 Kbps
Width : 1 280 pixels
Height : 720 pixels
Display aspect ratio : 16:9
Frame rate : 25.000 fps
Color space : YUV
Chroma subsampling : 4:2:0
Bit depth : 8 bits
Scan type : Progressive
Bits/(Pixel*Frame) : 0.221
Stream size : 1.99 GiB (71%)
Writing library : x264 core 148 r2665 a01e339
Encoding settings : cabac=1 / ref=5 / deblock=1:-3:-3 / analyse=0x3:0x113 / me=umh / subme=8 / psy=1 / psy_rd=1.00:0.00 / mixed_ref=1 / me_range=16 / chroma_me=1 / trellis=1 / 8x8dct=1 / cqm=0 / deadzone=21,11 / fast_pskip=1 / chroma_qp_offset=-2 / threads=12 / lookahead_threads=2 / sliced_threads=0 / nr=0 / decimate=1 / interlaced=0 / bluray_compat=0 / constrained_intra=0 / bframes=3 / b_pyramid=2 / b_adapt=2 / b_bias=0 / direct=3 / weightb=1 / open_gop=0 / weightp=2 / keyint=250 / keyint_min=25 / scenecut=40 / intra_refresh=0 / rc_lookahead=50 / rc=2pass / mbtree=1 / bitrate=5086 / ratetol=1.0 / qcomp=0.60 / qpmin=0 / qpmax=69 / qpstep=4 / cplxblur=20.0 / qblur=0.5 / ip_ratio=1.40 / aq=1:1.00
Language : English
Default : Yes
Forced : No
DURATION : 00:57:24.160000000
NUMBER_OF_FRAMES : 86104
NUMBER_OF_BYTES : 2190119789
_STATISTICS_WRITING_APP : no_variable_data
_STATISTICS_WRITING_DATE_UTC : 1970-01-01 00:00:00
_STATISTICS_TAGS : BPS DURATION NUMBER_OF_FRAMES NUMBER_OF_BYTES
Audio #1
ID : 2
Format : AC-3
Format/Info : Audio Coding 3
Mode extension : CM (complete main)
Format settings, Endianness : Big
Codec ID : A_AC3
Duration : 57mn 24s
Bit rate mode : Constant
Bit rate : 384 Kbps
Channel(s) : 6 channels
Channel positions : Front: L C R, Side: L R, LFE
Sampling rate : 48.0 KHz
Bit depth : 16 bits
Compression mode : Lossy
Stream size : 158 MiB (5%)
Language : Russian
Default : Yes
Forced : No
DURATION : 00:57:24.203000000
NUMBER_OF_FRAMES : 322894
NUMBER_OF_BYTES : 649662728
_STATISTICS_WRITING_APP : no_variable_data
_STATISTICS_WRITING_DATE_UTC : 1970-01-01 00:00:00
_STATISTICS_TAGS : BPS DURATION NUMBER_OF_FRAMES NUMBER_OF_BYTES
Audio #2
ID : 3
Format : DTS
Format/Info : Digital Theater Systems
Codec ID : A_DTS
Duration : 57mn 24s
Bit rate mode : Constant
Bit rate : 1 510 Kbps
Channel(s) : 6 channels
Channel positions : Front: L C R, Side: L R, LFE
Sampling rate : 48.0 KHz
Bit depth : 24 bits
Compression mode : Lossy
Delay relative to video : 11ms
Stream size : 620 MiB (22%)
Language : English
Default : No
Forced : No
Menu
00:00:00.000 : en:00:00:00.000
00:09:11.200 : en:00:09:11.200
00:21:51.280 : en:00:21:51.280
00:33:01.280 : en:00:33:01.280
00:43:55.280 : en:00:43:55.280
00:54:42.680 : en:00:54:42.680
[Профиль] [ЛС]
Показать сообщения:    

Текущее время: Сегодня 08:19

Часовой пояс: GMT



Вы не можете начинать темы
Вы не можете отвечать на сообщения
Вы не можете редактировать свои сообщения
Вы не можете удалять свои сообщения
Вы не можете голосовать в опросах
Вы не можете прикреплять файлы к сообщениям
Вы не можете скачивать файлы