Ночная фиалка (Виктория Держицкая) [2013, Россия, мелодрама, HDTV 1080i]

 
Автор Сообщение

TorrentFilm ®

Пол:

Стаж: 2 года

Сообщений: 7741



Награды: Нет

Торрент-статистика

Создавать темы 04-Мар-2016 00:08

[Цитировать]

Ночная фиалка- -Страна: Россия
Жанр: мелодрама
Год выпуска: 2013
Производство: «Студия Маркес»
Продолжительность: 01:28:42
Оригинальная аудиодорожка: русский
Cубтитры: нет-Режиссер: Виктория Держицкая-В ролях:
Иван Жидков, Наталья Рудова, Олег Бойко, Валерий Девятых, Анна Масальская, Дмитрий Шевченко,
Анатолий Горячев, Антон Арзамасцев, Игорь Скрипко, Юлия Ковалёва, Сергей Крошкин, Дмитрий Гудочкин-Описание:
Когда-то Рита, как многие девушки, приехала из провинции в столицу за лучшей жизнью, но достигла лишь одного: стала профессиональной содержанкой. «Никчёмная, ленивая и продажная» — эти слова она услышала в свой адрес от Саши, сына своего очередного покровителя. Рита решает доказать себе и Саше, что способна на бескорыстные и искренние чувства, но в их жизнь вмешивается обстоятельство непреодолимой силы: Рита больна, и врачи ничего хорошего не обещают…-Возраст: 12+-Качество: HDTV (1080i)
Формат: TS
Видео кодек: AVC
Аудио кодек: MPEG Audio

Видео: AVC, 1920 х 1080 (16:9), 25,000 кадр/сек, 6 157 Кбит/сек, 0.119 bit/pixel
Аудио: MPEG Audio 2, 48000 Hz, 192 Kbps, 2 канала
-

MediaInfo

General
ID : 1 (0x1)
Complete name : D:\Раздачи\Ночная фиалка HDTV (1080i)\Ночная фиалка 2013 HDTV (1080i).ts
Format : MPEG-TS
File size : 4.14 GiB
Duration : 1h 28mn
Overall bit rate mode : Variable
Overall bit rate : 6 681 Kbps
Video
ID : 306 (0x132)
Menu ID : 1 (0x1)
Format : AVC
Format/Info : Advanced Video Codec
Format profile : High@L4
Format settings, CABAC : Yes
Format settings, ReFrames : 3 frames
Codec ID : 27
Duration : 1h 28mn
Bit rate : 6 157 Kbps
Width : 1 920 pixels
Height : 1 080 pixels
Display aspect ratio : 16:9
Frame rate : 25.000 fps
Standard : Component
Color space : YUV
Chroma subsampling : 4:2:0
Bit depth : 8 bits
Scan type : Interlaced
Scan type, store method : Separated fields
Scan order : Top Field First
Bits/(Pixel*Frame) : 0.119
Stream size : 3.81 GiB (92%)
Color range : Limited
Color primaries : BT.709
Transfer characteristics : BT.709
Matrix coefficients : BT.709
Audio
ID : 406 (0x196)
Menu ID : 1 (0x1)
Format : MPEG Audio
Format version : Version 1
Format profile : Layer 2
Codec ID : 3
Duration : 1h 28mn
Bit rate mode : Constant
Bit rate : 192 Kbps
Channel(s) : 2 channels
Sampling rate : 48.0 KHz
Compression mode : Lossy
Stream size : 122 MiB (3%)
Language : English

Скриншоты


-Раздаю до первых 5-ти скачавших, на раздачи не возвращаюсь...-
[Профиль] [ЛС]
Кто просматривает тему:

Форум Тема Автор Размер
Фильмы (DVD 5/9) Крысы, или Ночная мафия (Евгений Васильев, Юрий Музыка) [1991, боевик, DVD5] TorrentFilm 3.1 GB
Фильмы (HD Rips | 720p, 1080p) Ночная бригада / The Night Crew (2015) BDRip 1080p | iTunes достали все 6.79 GB
Фильмы (HD Rips | 720p, 1080p) Ночная бригада / The Night Crew (2015) BDRip 720p | iTunes Russian Mafia 4.61 GB
Фильмы 2015 года Ночная бригада / The Night Crew (2015) HDRip | iTunes достали все 1.37 GB
Фильмы 2015 года Ночная бригада / The Night Crew (Кристиан Сесма / Christian Sesma) [2015 г., Боевик, триллер, HDRip] МVO (iTunes) Один 777 745 MB
Фильмы 2015 года Ночная бригада / The Night Crew / Blackwater (Кристиан Сесма / Christian Sesma) [2015, США, боевик, триллер, HDRip] MVO (iTunes) TorrentFilm 1.37 GB
Зарубежные Ночная красавица в 3Д / The Forbidden Girl 3D (Тилль Хастрайтер / Till Hastreiter) [2013, ужасы, триллер, мистика, фэнтези, BDrip-AVC] Half SideBySide / Горизонтальная анаморфная стереопара TorrentFilm 4.24 GB
Зарубежные сериалы Ночная смена / The Night Shift [s01] (2014) HDTVRip | VictoryFilms Белочка 3.87 GB
Показать сообщения:    

Текущее время: Сегодня 02:14

Часовой пояс: GMT



Вы не можете начинать темы
Вы не можете отвечать на сообщения
Вы не можете редактировать свои сообщения
Вы не можете удалять свои сообщения
Вы не можете голосовать в опросах
Вы не можете прикреплять файлы к сообщениям
Вы не можете скачивать файлы