Ночная фиалка (Виктория Держицкая) [2013, Россия, драма, мелодрама, HDTVRip 720p]

 
Автор Сообщение

TorrentFilm ®

Пол:

Стаж: 2 года

Сообщений: 7741



Награды: Нет

Торрент-статистика

Создавать темы 03-Янв-2016 00:05

[Цитировать]

Ночная фиалка
Выпущено: Россия, студия Маркес
Жанр: драма, мелодрама
Год выпуска: 2013
Продолжительность: 01:28:44
Субтитры: нет
Режиссер: Виктория Держицкая
В ролях: Иван Жидков, Наталья Рудова, Дмитрий Шевченко, Анатолий Горячев, Игорь Скрипко, Юлия Ковалёва, Сергей Крошкин
Описание: Богатый и влиятельный чиновник содержит любовницу — очень красивую девушку Риту, которую он в свое время вытащил из борделя. Он обеспечил ее всем — квартирой, машиной, деньгами, потребовав взамен лишь одного — верности. Рита, ни капли не любя этого щедрого, но жестокого и циничного человека, соблюдает их «договор», но лишь до того момента, пока не встречает свою настоящую и единственную любовь.

Автор рипа / записи: fanatus
Качество видео: HDTVRip 720p
Исходник: Запись с телеканала РОССИЯ HD
Контейнер: MKV
Видео: MPEG-4 AVC, 3614 kbps , 1280x720 (16:9), 25.000 fps, 0.157 bit/pixel
Аудио: AC3, 2 ch, 48 kHz, 192 kbps

MediaInfo

General
Unique ID : 204244201474230206130579082602350434718 (0x99A8009A93E1BD6F8AA5CE7BA43CD99E)
Complete name : F:\Nochnaja fialka.2013.x264.HDTVRip.720p.fanatus.mkv
Format : Matroska
Format version : Version 2
File size : 2.36 GiB
Duration : 1h 28mn
Overall bit rate : 3 807 Kbps
Movie name : Nochnaja fialka (2013) - fanatus
Encoded date : UTC 2013-10-27 18:45:42
Writing application : mkvmerge v3.4.0 ('Rapunzel') сборка от May 15 2010 09:38:20
Writing library : libebml v0.8.0 + libmatroska v0.9.0
Video
ID : 1
Format : AVC
Format/Info : Advanced Video Codec
Format profile : High@L4.1
Format settings, CABAC : Yes
Format settings, ReFrames : 9 frames
Codec ID : V_MPEG4/ISO/AVC
Duration : 1h 28mn
Bit rate : 3 614 Kbps
Width : 1 280 pixels
Height : 720 pixels
Display aspect ratio : 16:9
Frame rate : 25.000 fps
Color space : YUV
Chroma subsampling : 4:2:0
Bit depth : 8 bits
Scan type : Progressive
Bits/(Pixel*Frame) : 0.157
Stream size : 2.19 GiB (93%)
Title : Nochnaja fialka (2013) - HDTVRip 720p
Writing library : x264 core 138 r2358 9e941d1
Encoding settings : cabac=1 / ref=9 / deblock=1:-2:-2 / analyse=0x3:0x113 / me=umh / subme=10 / psy=1 / psy_rd=1.00:0.10 / mixed_ref=1 / me_range=32 / chroma_me=1 / trellis=2 / 8x8dct=1 / cqm=0 / deadzone=21,11 / fast_pskip=0 / chroma_qp_offset=-3 / threads=16 / lookahead_threads=2 / sliced_threads=0 / nr=0 / decimate=0 / interlaced=0 / bluray_compat=0 / constrained_intra=0 / bframes=9 / b_pyramid=2 / b_adapt=2 / b_bias=0 / direct=3 / weightb=1 / open_gop=0 / weightp=2 / keyint=250 / keyint_min=25 / scenecut=40 / intra_refresh=0 / rc=2pass / mbtree=0 / bitrate=3614 / ratetol=1.0 / qcomp=0.65 / qpmin=0 / qpmax=69 / qpstep=4 / cplxblur=20.0 / qblur=0.5 / ip_ratio=1.40 / pb_ratio=1.30 / aq=1:0.90
Language : Russian
Default : Yes
Forced : No
Matrix coefficients : BT.709-5, BT.1361, IEC 61966-2-4 709, SMPTE RP177
Audio
ID : 2
Format : AC-3
Format/Info : Audio Coding 3
Mode extension : CM (complete main)
Format settings, Endianness : Big
Codec ID : A_AC3
Duration : 1h 28mn
Bit rate mode : Constant
Bit rate : 192 Kbps
Channel(s) : 2 channels
Channel positions : Front: L R
Sampling rate : 48.0 KHz
Bit depth : 16 bits
Compression mode : Lossy
Stream size : 122 MiB (5%)
Language : Russian
Default : Yes
Forced : No

Скриншот c названием фильма

[Профиль] [ЛС]
Кто просматривает тему:

Форум Тема Автор Размер
Фильмы (DVD 5/9) Крысы, или Ночная мафия (Евгений Васильев, Юрий Музыка) [1991, боевик, DVD5] TorrentFilm 3.1 GB
Фильмы (HD Rips | 720p, 1080p) Ночная бригада / The Night Crew (2015) BDRip 1080p | iTunes достали все 6.79 GB
Фильмы (HD Rips | 720p, 1080p) Ночная бригада / The Night Crew (2015) BDRip 720p | iTunes Russian Mafia 4.61 GB
Фильмы 2015 года Ночная бригада / The Night Crew (2015) HDRip | iTunes достали все 1.37 GB
Фильмы 2015 года Ночная бригада / The Night Crew (Кристиан Сесма / Christian Sesma) [2015 г., Боевик, триллер, HDRip] МVO (iTunes) Один 777 745 MB
Фильмы 2015 года Ночная бригада / The Night Crew / Blackwater (Кристиан Сесма / Christian Sesma) [2015, США, боевик, триллер, HDRip] MVO (iTunes) TorrentFilm 1.37 GB
Зарубежные Ночная красавица в 3Д / The Forbidden Girl 3D (Тилль Хастрайтер / Till Hastreiter) [2013, ужасы, триллер, мистика, фэнтези, BDrip-AVC] Half SideBySide / Горизонтальная анаморфная стереопара TorrentFilm 4.24 GB
Зарубежные сериалы Ночная смена / The Night Shift [s01] (2014) HDTVRip | VictoryFilms Белочка 3.87 GB
Показать сообщения:    

Текущее время: Сегодня 14:36

Часовой пояс: GMT



Вы не можете начинать темы
Вы не можете отвечать на сообщения
Вы не можете редактировать свои сообщения
Вы не можете удалять свои сообщения
Вы не можете голосовать в опросах
Вы не можете прикреплять файлы к сообщениям
Вы не можете скачивать файлы