Ночная красавица в 3Д / The Forbidden Girl 3D (Тилль Хастрайтер / Till Hastreiter) [2013, ужасы, триллер, мистика, фэнтези, BDrip-AVC] Half SideBySide / Горизонтальная анаморфная стереопара

 
Автор Сообщение

TorrentFilm ®

Пол:

Стаж: 2 года

Сообщений: 7741



Награды: Нет

Торрент-статистика

Создавать темы 04-Янв-2016 00:02

[Цитировать]

Ночная красавица в 3Д / The Forbidden Girl 3D
Год выхода: 2013
Жанр: ужасы, триллер, мистика, фэнтези
Страна: Германия
Продолжительность: 01:45:18
Перевод: Профессиональный многоголосый [НТВ+]
Режиссер: Тилль Хастрайтер
Роли озвучивали: Питер Гадиот, Ютта-Мерле Бёрнсен, Клаус Тангэ, Жанетт Хайн, Марк Бишофф, Роджер Теб, Джесси Инман, Манон Кайл, Йорг Винсент Малотки, Тадэуш Мейлингер
Описание: Молодой человек по имени Тоби при странных и трагических обстоятельствах теряет свою возлюбленную Эсму. Он уверен, что причиной ее смерти стало появление некоего дьявольского существа. Произошедшее так его шокирует, что он попадает в психиатрическую клинику. Позже, когда Тоби выходит оттуда, ему предлагают работу в загородном поместье у одной старой женщины. Сама женщина очень слаба, поэтому всеми ее делами заведует дворецкий. Эта парочка выглядит несколько пугающей, но условия работы выгодные и Тоби соглашается. Как потом выясняется, в доме есть еще один жилец — молодая девушка, страдающая редкой болезнью — аллергией на дневной свет. Она заперта в специальной комнате. Что-то в ней напоминает ему об Эсме. Но кто же на самом деле эти люди к которым он попал?
Формат 3D: Half SideBySide / Горизонтальная анаморфная стереопара
Порядок ракурсов: левый ракурс первый
Качество: BDRip
Контейнер: MKV
Видео кодек: x264
Аудио кодек: AC3
Видео: MPEG-4 AVC, 5 454 Кбит/с, 1920х1080, 23.976 кадр/с
АудиоРусский / AC3 / 48 KHz / 2 ch / 192 Kbps (Профессиональный многоголосый [НТВ+])

Скриншоты

MediaInfo

Общее
Уникальный идентификатор : 252249319557155428436995413599258655804 (0xBDC573A9136C403EAAC9CBF35137BC3C)
Полное имя : D:\Download\The Forbidden Girl 3D 2013 1080p halfSbS [3d-tracker.ru].mkv
Формат : Matroska
Версия формата : Version 2
Размер файла : 4,24 Гбайт
Продолжительность : 1 ч. 45 м.
Общий поток : 5760 Кбит/сек
Название фильма : 3d-tracker.ru
Дата кодирования : UTC 2014-03-28 13:33:01
Программа кодирования : mkvmerge v4.0.0 ('The Stars were mine') сборка от Jun 6 2010 16:18:42
Библиотека кодирования : libebml v1.0.0 + libmatroska v1.0.0
Видео
Идентификатор : 1
Формат : AVC
Формат/Информация : Advanced Video Codec
Профиль формата : High@L4.1
MultiView_Count : 2
MultiView_Layout : Right Eye
Параметр CABAC формата : Да
Параметр ReFrames формата : 4 кадра
Идентификатор кодека : V_MPEG4/ISO/AVC
Продолжительность : 1 ч. 45 м.
Битрейт : 5454 Кбит/сек
Ширина : 1920 пикселей
Высота : 1080 пикселей
Соотношение сторон : 16:9
Режим частоты кадров : Постоянный
Частота кадров : 23,976 кадра/сек
Цветовое пространство : YUV
Субдискретизация насыщенности : 4:2:0
Битовая глубина : 8 бит
Тип развёртки : Прогрессивная
Бит/(Пиксели*Кадры) : 0.110
Размер потока : 4,01 Гбайт (95%)
Заголовок : 3d-tracker.ru
Библиотека кодирования : x264 core 135 r2345 f0c1c53
Настройки программы : cabac=1 / ref=4 / deblock=1:-1:-1 / analyse=0x3:0x133 / me=umh / subme=7 / psy=1 / psy_rd=1.00:0.15 / mixed_ref=1 / me_range=16 / chroma_me=1 / trellis=1 / 8x8dct=1 / cqm=0 / deadzone=21,11 / fast_pskip=0 / chroma_qp_offset=-3 / threads=9 / lookahead_threads=1 / sliced_threads=0 / nr=0 / decimate=1 / interlaced=0 / bluray_compat=0 / constrained_intra=0 / bframes=3 / b_pyramid=2 / b_adapt=1 / b_bias=0 / direct=1 / weightb=1 / open_gop=0 / weightp=2 / keyint=250 / keyint_min=23 / scenecut=40 / intra_refresh=0 / rc_lookahead=40 / rc=crf / mbtree=1 / crf=20.0 / qcomp=0.60 / qpmin=0 / qpmax=69 / qpstep=4 / ip_ratio=1.40 / aq=1:1.00
Язык : English
Default : Нет
Forced : Нет
Аудио
Идентификатор : 2
Формат : AC-3
Формат/Информация : Audio Coding 3
Расширение режима : CM (complete main)
Параметр Endianness формата : Big
Идентификатор кодека : A_AC3
Продолжительность : 1 ч. 45 м.
Вид битрейта : Постоянный
Битрейт : 192 Кбит/сек
Каналы : 2 канала
Расположение каналов : Front: L R
Частота : 48,0 КГц
Битовая глубина : 16 бит
Метод сжатия : С потерями
Размер потока : 145 Мбайт (3%)
Заголовок : 3d-tracker.ru
Язык : Russian
Default : Нет
Forced : Нет
[Профиль] [ЛС]
Показать сообщения:    

Текущее время: Сегодня 02:39

Часовой пояс: GMT



Вы не можете начинать темы
Вы не можете отвечать на сообщения
Вы не можете редактировать свои сообщения
Вы не можете удалять свои сообщения
Вы не можете голосовать в опросах
Вы не можете прикреплять файлы к сообщениям
Вы не можете скачивать файлы