Ночная бригада / The Night Crew (2015) BDRip 1080p | iTunes

 
Автор Сообщение

достали все ®

Пол:

Стаж: 1 год 8 месяцев

Сообщений: 6581



Награды: 12 (Подробнее)

Mega Seeder 3 (Количество: 1) Top Releaser 2 (Количество: 1) Mega Seeder 4 (Количество: 1)
Торрент-статистика

Создавать темы 26-Авг-2015 06:49

[Цитировать]

Название: Ночная бригада
Оригинальное название: The Night Crew
Год выпуска: 2015
Жанр: Боевик, триллер
Выпущено: США, Premiere Entertainment Group
Режиссер: Кристиан Сесма
В ролях: Дэнни Трехо, Джейсон Мьюз, Чести Бальестерос, Люк Госс, Букем Вудбайн, Кристин Нгуйен, Жаклин Лорд, Бруна Рубио, Роберто «Санс» Санчес, Лусиана Фолхебер
О фильме: Команда безбашенных искателей приключений пытается выжить ночью в мотеле посреди пустыни, обороняясь от орды жестоких убийц.

Качество: BDRip 1080p
Видео: MPEG-4 AVC, 9080 Кбит/с, 1920x1080
Аудио: Русский (AC3, 6 ch, 384 Кбит/с), французский (DTS, 6 ch, 1510 Кбит/с)
Продолжительность: 01:28:38
Озвучивание: Профессиональное многоголосое- iTunes
Семпл

Скриншоты

MediaInfo

General
Unique ID : 239436281076160711348730067233691148674 (0xB421C016EB7D868F81238EBE88A02182)
Complete name : D:ВидеоNo4n41a.6r1g4d4.2015.P.BDRip.1080p.mkv
Format : Matroska
Format version : Version 4 / Version 2
File size : 6.79 GiB
Duration : 1h 28mn
Overall bit rate : 11.0 Mbps
Encoded date : UTC 2015-08-25 13:16:36
Writing application : mkvmerge v6.5.0 ('Isn't she lovely') built on Oct 20 2013 12:50:05
Writing library : libebml v1.3.0 + libmatroska v1.4.1
Video
ID : 1
Format : AVC
Format/Info : Advanced Video Codec
Format profile : High@L4.1
Format settings, CABAC : Yes
Format settings, ReFrames : 4 frames
Codec ID : V_MPEG4/ISO/AVC
Duration : 1h 28mn
Bit rate : 9 080 Kbps
Width : 1 920 pixels
Height : 1 080 pixels
Display aspect ratio : 16:9
Frame rate mode : Constant
Frame rate : 25.000 fps
Color space : YUV
Chroma subsampling : 4:2:0
Bit depth : 8 bits
Scan type : Progressive
Bits/(Pixel*Frame) : 0.175
Stream size : 5.48 GiB (81%)
Writing library : x264 core 146 r2538 121396c
Encoding settings : cabac=1 / ref=4 / deblock=1:0:0 / analyse=0x3:0x113 / me=umh / subme=8 / psy=1 / psy_rd=1.00:0.00 / mixed_ref=1 / me_range=16 / chroma_me=1 / trellis=1 / 8x8dct=1 / cqm=0 / deadzone=21,11 / fast_pskip=1 / chroma_qp_offset=-2 / threads=18 / lookahead_threads=3 / sliced_threads=0 / nr=0 / decimate=1 / interlaced=0 / bluray_compat=0 / constrained_intra=0 / bframes=3 / b_pyramid=2 / b_adapt=2 / b_bias=0 / direct=3 / weightb=1 / open_gop=0 / weightp=2 / keyint=250 / keyint_min=25 / scenecut=40 / intra_refresh=0 / rc_lookahead=50 / rc=2pass / mbtree=1 / bitrate=9080 / ratetol=1.0 / qcomp=0.60 / qpmin=0 / qpmax=69 / qpstep=4 / cplxblur=20.0 / qblur=0.5 / ip_ratio=1.40 / aq=1:1.00
Language : English
Default : Yes
Forced : No
Audio #1
ID : 2
Format : AC-3
Format/Info : Audio Coding 3
Mode extension : CM (complete main)
Format settings, Endianness : Big
Codec ID : A_AC3
Duration : 1h 28mn
Bit rate mode : Constant
Bit rate : 384 Kbps
Channel(s) : 6 channels
Channel positions : Front: L C R, Side: L R, LFE
Sampling rate : 48.0 KHz
Bit depth : 16 bits
Compression mode : Lossy
Stream size : 243 MiB (4%)
Language : Russian
Default : Yes
Forced : No
Audio #2
ID : 3
Format : DTS
Format/Info : Digital Theater Systems
Mode : 16
Format settings, Endianness : Big
Codec ID : A_DTS
Duration : 1h 28mn
Bit rate mode : Constant
Bit rate : 1 509 Kbps
Channel(s) : 6 channels
Channel positions : Front: L C R, Side: L R, LFE
Sampling rate : 48.0 KHz
Bit depth : 24 bits
Compression mode : Lossy
Stream size : 957 MiB (14%)
Language : French
Default : No
Forced : No
Menu
00:00:00.000 : en:00:00:00.000
00:06:35.720 : en:00:06:35.720
00:14:09.280 : en:00:14:09.280
00:21:06.080 : en:00:21:06.080
00:29:39.160 : en:00:29:39.160
00:36:59.680 : en:00:36:59.680
00:43:21.600 : en:00:43:21.600
00:49:52.200 : en:00:49:52.200
00:56:32.640 : en:00:56:32.640
01:04:49.000 : en:01:04:49.000
01:10:37.000 : en:01:10:37.000
01:18:10.080 : en:01:18:10.080
[Профиль] [ЛС]
Кто просматривает тему:

Форум Тема Автор Размер
Фильмы (DVD 5/9) Крысы, или Ночная мафия (Евгений Васильев, Юрий Музыка) [1991, боевик, DVD5] TorrentFilm 3.1 GB
Фильмы (HD Rips | 720p, 1080p) Ночная бригада / The Night Crew (2015) BDRip 720p | iTunes Russian Mafia 4.61 GB
Фильмы 2015 года Ночная бригада / The Night Crew (2015) HDRip | iTunes достали все 1.37 GB
Фильмы 2015 года Ночная бригада / The Night Crew (Кристиан Сесма / Christian Sesma) [2015 г., Боевик, триллер, HDRip] МVO (iTunes) Один 777 745 MB
Фильмы 2015 года Ночная бригада / The Night Crew / Blackwater (Кристиан Сесма / Christian Sesma) [2015, США, боевик, триллер, HDRip] MVO (iTunes) TorrentFilm 1.37 GB
Зарубежные Ночная красавица в 3Д / The Forbidden Girl 3D (Тилль Хастрайтер / Till Hastreiter) [2013, ужасы, триллер, мистика, фэнтези, BDrip-AVC] Half SideBySide / Горизонтальная анаморфная стереопара TorrentFilm 4.24 GB
Зарубежные сериалы Ночная смена / The Night Shift [s01] (2014) HDTVRip | VictoryFilms Белочка 3.87 GB
Зарубежные сериалы Ночная смена / The Night Shift [S03] (2016) HDTV 720p | Gears Media достали все 12.28 GB
Показать сообщения:    

Текущее время: Сегодня 00:19

Часовой пояс: GMT



Вы не можете начинать темы
Вы не можете отвечать на сообщения
Вы не можете редактировать свои сообщения
Вы не можете удалять свои сообщения
Вы не можете голосовать в опросах
Вы не можете прикреплять файлы к сообщениям
Вы не можете скачивать файлы