Ночи в стиле буги / Boogie Nights (1997) HDRip | КПК | Лицензия

 
Автор Сообщение

Шкипер ®

Пол:

Стаж: 1 год 7 месяцев

Сообщений: 52



Награды: Нет

Торрент-статистика

Создавать темы 05-Окт-2016 14:13

[Цитировать]

Информация о фильме
Название: Ночи в стиле буги
Оригинальное название: Boogie Nights
Год выхода: 1997
Жанр: Драма, биография
Режиссер: Пол Томас Андерсон
В ролях: Марк Уолберг, Берт Рейнолдс, Джулианна Мур, Джон Си Райли, Хэзер Грэм, Дон Чидл, Луис Гусман, Филип Сеймур Хоффман, Уильям Х. Мэйси, Томас Джейн
О фильме:
Эта история начинается в 1977 году в долине Сан-Фернандо, когда всемирно известный режиссёр порнофильмов Джек Хорнер встретил в ресторане ночного клуба молодого официанта Эдди Адамса и понял, что этот юноша — как раз то, что ему в данный момент необходимо.

Страна: США
Студия: New Line Cinema
Продолжительность: 02:35:36
Перевод: Многоголосый (профессиональный, закадровый) - (лицензия)
Файл
Кодек: h264
Качество: HDRip| КПК
Видео: MPEG4 Video (H264), 496x208 (2.40:1), 23.976fps, 500kbps, 0.202 Bits/Pixel
Звук: AAC lc, 44100Hz, 2ch, 126kbps
Субтитры: Отсутствуют
Семпл

MI

General
Complete name : E:Изготовление рипаBoogie.Nights.1997.HDRip.by shkiper.mp4
Format : MPEG-4
Format profile : Base Media
Codec ID : isom (isom/avc1)
File size : 700 MiB
Duration : 2h 35mn
Overall bit rate mode : Variable
Overall bit rate : 629 Kbps
Encoded date : UTC 2016-10-04 10:32:02
Tagged date : UTC 2016-10-04 10:32:02
Video
ID : 1
Format : AVC
Format/Info : Advanced Video Codec
Format profile : Baseline@L3
Format settings, CABAC : No
Format settings, ReFrames : 1 frame
Codec ID : avc1
Codec ID/Info : Advanced Video Coding
Duration : 2h 35mn
Bit rate : 500 Kbps
Maximum bit rate : 1 965 Kbps
Width : 496 pixels
Height : 208 pixels
Display aspect ratio : 2.40:1
Frame rate mode : Constant
Frame rate : 23.976 (24000/1001) fps
Original frame rate : 23.976 (23976/1000) fps
Color space : YUV
Chroma subsampling : 4:2:0
Bit depth : 8 bits
Scan type : Progressive
Bits/(Pixel*Frame) : 0.202
Stream size : 556 MiB (80%)
Title : Imported with GPAC 0.4.6-DEV (internal rev. 5)
Writing library : x264 core 67 r1165M 6841c5e
Encoding settings : cabac=0 / ref=1 / deblock=1:0:0 / analyse=0x1:0 / me=hex / subme=6 / psy_rd=1.0:0.0 / mixed_ref=0 / me_range=16 / chroma_me=1 / trellis=0 / 8x8dct=0 / cqm=0 / deadzone=21,11 / chroma_qp_offset=-2 / threads=3 / nr=0 / decimate=1 / mbaff=0 / bframes=0 / keyint=250 / keyint_min=25 / scenecut=40 / rc=2pass / bitrate=500 / ratetol=1.0 / qcomp=0.60 / qpmin=10 / qpmax=51 / qpstep=4 / cplxblur=20.0 / qblur=0.5 / vbv_maxrate=1500 / vbv_bufsize=2000 / ip_ratio=1.40 / aq=1:1.00
Encoded date : UTC 2016-10-04 10:32:02
Tagged date : UTC 2016-10-04 10:33:16
Audio
ID : 2
Format : AAC
Format/Info : Advanced Audio Codec
Format profile : LC
Codec ID : 40
Duration : 2h 35mn
Bit rate mode : Variable
Bit rate : 127 Kbps
Maximum bit rate : 265 Kbps
Channel(s) : 2 channels
Channel positions : Front: L R
Sampling rate : 44.1 KHz
Frame rate : 43.066 fps (1024 spf)
Compression mode : Lossy
Stream size : 141 MiB (20%)
Title : Imported with GPAC 0.4.6-DEV (internal rev. 5)
Encoded date : UTC 2016-10-04 10:32:59
Tagged date : UTC 2016-10-04 10:33:16

Скриншоты

Релиз от:
[Профиль] [ЛС]
Кто просматривает тему:

Показать сообщения:    

Текущее время: Сегодня 22:19

Часовой пояс: GMT



Вы не можете начинать темы
Вы не можете отвечать на сообщения
Вы не можете редактировать свои сообщения
Вы не можете удалять свои сообщения
Вы не можете голосовать в опросах
Вы не можете прикреплять файлы к сообщениям
Вы не можете скачивать файлы