Ночи в стиле буги / Boogie Nights (1997) BDRip 720p

 
Автор Сообщение

Russian Mafia ®

Пол:

Стаж: 1 год 8 месяцев

Сообщений: 4256



Награды: 10 (Подробнее)

Top Releaser 2 (Количество: 1) Top Releaser 3 (Количество: 1) Mega Seeder 1 (Количество: 1)
Торрент-статистика

Создавать темы 04-Окт-2016 13:38

[Цитировать]

Информация о фильме
Название: Ночи в стиле буги
Оригинальное название: Boogie Nights
Год выхода: 1997
Жанр: драма, биография
Режиссер: Пол Томас Андерсон
В ролях: Марк Уолберг, Берт Рейнолдс, Джулианна Мур, Джон Си Райли, Хэзер Грэм, Дон Чидл, Луис Гусман, Филип Сеймур Хоффман, Уильям Х. Мэйси, Томас Джейн
О фильме: Эта история начинается в 1977 году в долине Сан-Фернандо, когда всемирно известный режиссёр порнофильмов Джек Хорнер встретил в ресторане ночного клуба молодого официанта Эдди Адамса и понял, что этот юноша — как раз то, что ему в данный момент необходимо.
Интуиция не подвела опытного порномастера: Эдди оказался настоящим кладом для того рода деятельности, которым занимался Хорнер. На пробных съёмках с самой опытной порнозвездой Эмбер Эдди показал себя мастером высшего класса, и началась его «раскрутка» в качестве звезды порно и триумфальное шествие по стране фильмов с новой звездой. А в карманы Хорнера и его сподвижников потекли огромные деньги.
Но влюблённая в него Эмбер сама способствовала началу падения этой удивительной карьеры. И случилось это, когда она, шутя, познакомила Дирка с наркотиками…

Выпущено: New Line Cinema
Продолжительность: 02:35:36
Перевод: Многоголосый закадровый (лицензия) + Авторский (Ю.Живов)
Файл
Кодек: x264
Качество: BDRip (источник: Blu-ray Disc)
Видео: 1280x534 (2,40:1), 23.976 fps, 5600 kbps
Аудио #1: AC-3, 6 ch, 448 kbps (Многоголосый закадровый, R5)
Аудио #2: AC-3, 6 ch, 448 kbps (Одноголосый закадровый, Ю.Живов)
Аудио #3: AC-3, 6 ch, 640 kbps (Original)
Субтитры: Русские, Английские
Скачать: сэмпл
Скриншоты

MI

Общее
Уникальный идентификатор : 173205024271902344956922080870899892105 (0x824E1303C67E353C873C2CF9CA9BBF89)
Полное имя : Boogie.Nights.1997.BDRip.720p.Rus.Eng.mkv
Формат : Matroska
Версия формата : Version 2
Размер файла : 7,76 Гбайт
Продолжительность : 2 ч. 35 м.
Общий поток : 7135 Кбит/сек
Название фильма : Ночи в стиле буги / Boogie Nights (1997)
Дата кодирования : UTC 2013-11-14 17:43:37
Программа кодирования : mkvmerge v5.8.0 ('No Sleep / Pillow') built on Sep 2 2012 15:37:04
Библиотека кодирования : libebml v1.2.3 + libmatroska v1.3.0
Видео
Идентификатор : 1
Формат : AVC
Формат/Информация : Advanced Video Codec
Профиль формата : High@L4.1
Параметр CABAC формата : Да
Параметр ReFrames формата : 10 кадров
Идентификатор кодека : V_MPEG4/ISO/AVC
Продолжительность : 2 ч. 35 м.
Битрейт : 5600 Кбит/сек
Ширина : 1280 пикселей
Высота : 534 пикселя
Соотношение сторон : 2,40:1
Частота кадров : 23,976 кадра/сек
Цветовое пространство : YUV
Субдискретизация насыщенности : 4:2:0
Битовая глубина : 8 бит
Тип развёртки : Прогрессивная
Бит/(Пиксели*Кадры) : 0.342
Размер потока : 5,93 Гбайт (76%)
Заголовок : Release by AlexKa
Библиотека кодирования : x264 core 140 r2377 1ca7bb9
Настройки программы : cabac=1 / ref=10 / deblock=1:-3:-3 / analyse=0x3:0x133 / me=umh / subme=11 / psy=1 / psy_rd=1.00:0.10 / mixed_ref=1 / me_range=32 / chroma_me=1 / trellis=2 / 8x8dct=1 / cqm=0 / deadzone=21,11 / fast_pskip=0 / chroma_qp_offset=-3 / threads=12 / lookahead_threads=3 / sliced_threads=0 / nr=0 / decimate=0 / interlaced=0 / bluray_compat=0 / constrained_intra=0 / bframes=10 / b_pyramid=2 / b_adapt=2 / b_bias=0 / direct=3 / weightb=1 / open_gop=0 / weightp=2 / keyint=240 / keyint_min=23 / scenecut=40 / intra_refresh=0 / rc=2pass / mbtree=0 / bitrate=5600 / ratetol=1.0 / qcomp=0.60 / qpmin=0 / qpmax=69 / qpstep=4 / cplxblur=20.0 / qblur=0.5 / ip_ratio=1.40 / pb_ratio=1.30 / aq=1:0.80
Язык : English
Аудио #1
Идентификатор : 2
Формат : AC-3
Формат/Информация : Audio Coding 3
Расширение режима : CM (complete main)
Идентификатор кодека : A_AC3
Продолжительность : 2 ч. 35 м.
Вид битрейта : Постоянный
Битрейт : 448 Кбит/сек
Каналы : 6 каналов
Расположение каналов : Front: L C R, Side: L R, LFE
Частота : 48,0 КГц
Битовая глубина : 16 бит
Метод сжатия : С потерями
Размер потока : 499 Мбайт (6%)
Заголовок : Многоголосый закадровый, R5
Язык : Russian
Аудио #2
Идентификатор : 3
Формат : AC-3
Формат/Информация : Audio Coding 3
Расширение режима : CM (complete main)
Идентификатор кодека : A_AC3
Продолжительность : 2 ч. 35 м.
Вид битрейта : Постоянный
Битрейт : 448 Кбит/сек
Каналы : 6 каналов
Расположение каналов : Front: L C R, Side: L R, LFE
Частота : 48,0 КГц
Битовая глубина : 16 бит
Метод сжатия : С потерями
Размер потока : 499 Мбайт (6%)
Заголовок : Одноголосый закадровый, Ю.Живов
Язык : Russian
Аудио #3
Идентификатор : 4
Формат : AC-3
Формат/Информация : Audio Coding 3
Расширение режима : CM (complete main)
Идентификатор кодека : A_AC3
Продолжительность : 2 ч. 35 м.
Вид битрейта : Постоянный
Битрейт : 640 Кбит/сек
Каналы : 6 каналов
Расположение каналов : Front: L C R, Side: L R, LFE
Частота : 48,0 КГц
Битовая глубина : 16 бит
Метод сжатия : С потерями
Размер потока : 712 Мбайт (9%)
Заголовок : Original
Язык : English
Текст #1
Идентификатор : 5
Формат : UTF-8
Идентификатор кодека : S_TEXT/UTF8
Идентификатор кодека/Информация : UTF-8 Plain Text
Заголовок : Rus
Язык : Russian
Текст #2
Идентификатор : 6
Формат : UTF-8
Идентификатор кодека : S_TEXT/UTF8
Идентификатор кодека/Информация : UTF-8 Plain Text
Заголовок : Eng
Язык : English
Меню
00:00:00.000 : :Chapter 01
00:08:13.868 : :Chapter 02
00:12:45.473 : :Chapter 03
00:14:09.849 : :Chapter 04
00:21:07.141 : :Chapter 05
00:23:32.119 : :Chapter 06
00:28:14.276 : :Chapter 07
00:31:03.862 : :Chapter 08
00:34:49.963 : :Chapter 09
00:36:16.508 : :Chapter 10
00:38:38.983 : :Chapter 11
00:39:47.343 : :Chapter 12
00:44:25.663 : :Chapter 13
00:55:15.521 : :Chapter 14
00:57:35.577 : :Chapter 15
01:01:32.856 : :Chapter 16
01:03:21.339 : :Chapter 17
01:05:55.243 : :Chapter 18
01:10:26.681 : :Chapter 19
01:11:59.732 : :Chapter 20
01:15:38.993 : :Chapter 21
01:18:56.148 : :Chapter 22
01:21:28.550 : :Chapter 23
01:24:32.025 : :Chapter 24
01:29:18.728 : :Chapter 25
01:33:34.317 : :Chapter 26
01:39:07.191 : :Chapter 27
01:40:34.403 : :Chapter 28
01:47:09.882 : :Chapter 29
01:49:41.116 : :Chapter 30
01:53:15.831 : :Chapter 31
02:02:08.196 : :Chapter 32
02:07:04.283 : :Chapter 33
02:12:25.229 : :Chapter 34
02:19:50.841 : :Chapter 35
02:22:48.101 : :Chapter 36
02:25:19.961 : :Chapter 37

x264

x264 [info]: frame I:1220 Avg QP:13.83 size:108224
x264 [info]: frame P:46443 Avg QP:16.68 size: 51082
x264 [info]: frame B:176166 Avg QP:18.50 size: 22868
x264 [info]: consecutive B-frames: 1.8% 2.8% 5.9% 19.3% 14.6% 34.6% 7.8% 5.8% 2.5% 2.7% 2.0%
[Профиль] [ЛС]
Кто просматривает тему:

Показать сообщения:    

Текущее время: Сегодня 22:06

Часовой пояс: GMT



Вы не можете начинать темы
Вы не можете отвечать на сообщения
Вы не можете редактировать свои сообщения
Вы не можете удалять свои сообщения
Вы не можете голосовать в опросах
Вы не можете прикреплять файлы к сообщениям
Вы не можете скачивать файлы