Ночи Алисы / Les nuits d\'Alice (Вильям Крепен / Williams Crepin) [2010, Франция, комедия, DVB] Original (Fre) + Sub (rus)

 
Автор Сообщение

TorrentFilm ®

Пол:

Стаж: 2 года

Сообщений: 7741



Награды: Нет

Торрент-статистика

Создавать темы 09-Мар-2015 00:01

[Цитировать]

Ночи Алисы
Les nuits d'Alice- Страна: Франция
Жанр: комедия
Год выпуска: 2010
Продолжительность: 01:26:47
Перевод: Субтитры (перевод М.Лабори, Éclair Group)
Cубтитры: русские
Оригинальная аудиодорожка: французский
Режиссер: Вильям Крепен / Williams CrépinВ ролях: Эльза Лунгини / Elsa Lunghini (Alice), Маша Мериль / Macha Méril (Bettina), Матильда Мэй / Mathilda May (Angélique), Виктор Шамбон / Victor Chambon (Arthur)
Описание: Оказавшись между своей разваливающейся семьей, мужем и двумя детьми с одной стороны, и вдруг объявившейся после 20 лет отсутствия матерью, Алиса погружается в мир любимого сериала с главной героиней - гламурной стервой Анжеликой.
Доп. информация: TV5MONDE DVB-S

Качество видео: DVB
Формат видео: MKV
Видео: MPEG Video 2, 704x576@1024x576 (16:9), 25 fps, ~2766 kbps avg, 0.273 bit/pixel
Аудио: Французский (MPEG Audio 2, 2 ch, 48 kHz, ~192.00 kbps avg)
Формат субтитров: hardsub (неотключаемые)

MediaInfo

ОбщееУникальный идентификатор : 247578269753205786130371245276815180664 (0xBA41D71FD95B7C6ABAC28FF6DE244378)Полное имя : E:\My Torrents 2\[apreder]Les_nuits_d'Alice(2010)DVB.mkvФормат : MatroskaВерсия формата : Version 2Размер файла : 1,83 ГбайтПродолжительность : 1 ч. 26 м.Режим общего битрейта : ПеременныйОбщий поток : 3018 Кбит/секДата кодирования : UTC 2015-03-05 15:03:38Программа кодирования : mkvmerge v7.7.0 ('Six Voices') 64bit built on Feb 28 2015 23:39:33Библиотека кодирования : libebml v1.3.1 + libmatroska v1.4.2
ВидеоИдентификатор : 1Формат : MPEG VideoВерсия формата : Version 2Профиль формата : Main@MainПараметр BVOP формата : ДаПараметр матрицы формата : ВыборочнаяПараметр GOP формата : M=3, N=15Format_Settings_PictureStructure : FrameИдентификатор кодека : V_MPEG2Идентификатор кодека/Информация : MPEG 1 or 2 VideoПродолжительность : 1 ч. 26 м.Вид битрейта : ПеременныйБитрейт : 2766 Кбит/секШирина : 704 пикселяВысота : 576 пикселейСоотношение сторон : 16:9Режим частоты кадров : ПостоянныйЧастота кадров : 25,000 кадров/секСтандарт вещания : PALЦветовое пространство : YUVСубдискретизация насыщенности : 4:2:0Битовая глубина : 8 битТип развёртки : ЧересстрочнаяПорядок развёртки : Верхнее поле первоеМетод сжатия : С потерямиБит/(Пиксели*Кадры) : 0.273Временной код первого кадра : 00:00:00:00Оригинал временного кода : Group of pictures headerРазмер потока : 1,68 Гбайт (92%)Default : ДаForced : НетGop_OpenClosed_FirstFrame : Closed
АудиоИдентификатор : 2Формат : MPEG AudioВерсия формата : Version 1Профиль формата : Layer 2Идентификатор кодека : A_MPEG/L2Идентификатор кодека/Подсказка : MP2Продолжительность : 1 ч. 26 м.Вид битрейта : ПостоянныйБитрейт : 192 Кбит/секКаналы : 2 каналаЧастота : 48,0 КГцМетод сжатия : С потерямиРазмер потока : 119 Мбайт (6%)Язык : FrenchDefault : ДаForced : Нет

Скриншот c названием фильма

Скриншоты


Резервные скриншоты


-[2'155]
[Профиль] [ЛС]

Создавать темы 06-Авг-2015 22:42 (спустя 4 месяца 28 дней)

Топик был перенесен из форума Фильмы до 2014 года в форум Фильмы до 2012 года
sergej644
 

Создавать темы 12-Июн-2016 07:54 (спустя 1 год 3 месяца)

Топик был перенесен из форума Фильмы 2011 года в форум Фильмы 2010 года
Russian Mafia
 
Кто просматривает тему:

Показать сообщения:    

Текущее время: Сегодня 11:04

Часовой пояс: GMT



Вы не можете начинать темы
Вы не можете отвечать на сообщения
Вы не можете редактировать свои сообщения
Вы не можете удалять свои сообщения
Вы не можете голосовать в опросах
Вы не можете прикреплять файлы к сообщениям
Вы не можете скачивать файлы