Норфолк Саузерн. Издание 1 флота наследия / Norfolk Southern\'s. Heritage Fleet Vol. 1 (Эндрю Флетчер) [2013, Документальный, релаксация, видовой, BDRip 1080p]

 
Автор Сообщение

TorrentFilm ®

Пол:

Стаж: 2 года

Сообщений: 7741



Награды: Нет

Торрент-статистика

Создавать темы 23-Фев-2015 00:01

[Цитировать]

Норфолк Саузерн. Издание 1 флота наследия / Norfolk Southern's. Heritage Fleet Vol. 1
Год выпуска: 2013
Страна: США
Студия: C. Vision Production
Жанр: Документальный, релаксация, видовой
Продолжительность: 1:59:20
Перевод: Не требуется
Русские субтитры: нет
Режиссер: Эндрю Флетчер
Описание: Южный Норфолк соблюдал свои железные дороги предшественника во время его 30-й годовщины в 2012, рисуя 20 новых локомотивов в юбилейных подлинных схемах тех особых железных дорог.
С проектами, созданными Эндрю Флетчером, Норфолк, южные сотрудники в Алтуне, Пенсильвания и Чаттануге, Теннесси нарисовали локомотивы GE ES44AC. Локомотивы наследия теперь буксируют фрахт через 20,000 миль Норфолка Саузерна, сеть с 22 государствами и вне. В этом объеме мы захватили 10 из этих 20 локомотивов, которые включают Чтение … Monongahela … Уобаш … Норфолк южная … виргинская … Savannah & Atlanta … Никель Плэйт-Роуд … Лакаванна … Автомагистраль между штатами … и южное. Также включенный юбилейный локомотив, окрашенный, чтобы чтить наших Ветеранов.
Запоминание его наследия является чем-то, чем южный Норфолк должен гордиться. Эти классные локомотивы не только выглядят большими, но и они также возвращают воспоминания о железных дорогах, которые когда-то бороздили рельсы в восточных США.
Сэмпл: http://www53.zippyshare.com/v/nHAaNk12/file.html
Тип релиза: BDRip 1080p
Контейнер: M2TS
Видео: MPEG-2 AVC, 1440x1080 (16:9), 29,970 кадр/с, 25,2 Мбит/сек
Аудио: English AC-3, 2 ch, 48 KHz, ~192 Kbps

MediaInfo

ОбщееИдентификатор : 1 (0x1)Полное имя : E:\Dowlads\Norfolk Southern's. Heritage Fleet Vol. 1.m2tsФормат : BDAVФормат/Информация : Blu-ray VideoРазмер файла : 22,1 ГбайтПродолжительность : 1 ч. 59 м.Режим общего битрейта : ПеременныйОбщий поток : 26,5 Мбит/секМаксимальный общий битрейт : 35,5 Мбит/сек
ВидеоИдентификатор : 4113 (0x1011)Идентификатор меню : 1 (0x1)Формат : MPEG VideoВерсия формата : Version 2Профиль формата : Main@HighПараметр BVOP формата : ДаПараметр матрицы формата : ВыборочнаяПараметр GOP формата : M=3, N=15Format_Settings_PictureStructure : FrameИдентификатор кодека : 2Продолжительность : 1 ч. 59 м.Вид битрейта : ПеременныйБитрейт : 25,2 Мбит/секМаксимальный битрейт : 29,8 Мбит/секШирина : 1440 пикселейВысота : 1080 пикселейСоотношение сторон : 16:9Частота кадров : 29,970 кадров/секСтандарт вещания : ComponentЦветовое пространство : YUVСубдискретизация насыщенности : 4:2:0Битовая глубина : 8 битТип развёртки : ЧересстрочнаяПорядок развёртки : Верхнее поле первоеМетод сжатия : С потерямиБит/(Пиксели*Кадры) : 0.541Временной код первого кадра : 01:00:00;00Оригинал временного кода : Group of pictures headerРазмер потока : 21,0 Гбайт (95%)Библиотека кодирования : DVDSP_MARKER_INFO 1.0 / 14 / 0 0 4 Open / 1779 5342337 7 Reading / 22008 66090024 11 Monongahela / 39431 118411293 6 Wabash / 56185 168723555 16 Norfolk Southern / 73468 220624404 9 Virginian / 89483 268717449 18 Savannah & Atlanta / 110792 332708376 17 Nickel Plate Road / 128247 385125741 10 Lackawanna / 151412 454690236 10 Interstate / 177759 533810277 8 Southern / 201530 605194590 21 Honoring Our Veterans / 212905 639353715 7 Credits / 214296 643530888 8 Web SiteОсновные цвета : BT.709Характеристики трансфера : BT.709Коэффициенты матрицы : BT.709
АудиоИдентификатор : 4352 (0x1100)Идентификатор меню : 1 (0x1)Формат : AC-3Формат/Информация : Audio Coding 3Расширение режима : CM (complete main)Параметр Endianness формата : BigИдентификатор кодека : 129Продолжительность : 1 ч. 59 м.Вид битрейта : ПостоянныйБитрейт : 192 Кбит/секКаналы : 2 каналаРасположение каналов : Front: L RЧастота : 48,0 КГцБитовая глубина : 16 битМетод сжатия : С потерямиРазмер потока : 164 Мбайт (1%)

Скриншоты

[Профиль] [ЛС]
Кто просматривает тему:

Показать сообщения:    

Текущее время: Сегодня 20:41

Часовой пояс: GMT



Вы не можете начинать темы
Вы не можете отвечать на сообщения
Вы не можете редактировать свои сообщения
Вы не можете удалять свои сообщения
Вы не можете голосовать в опросах
Вы не можете прикреплять файлы к сообщениям
Вы не можете скачивать файлы