Номер семь / Седьмой / Boy 7 (Лауренс Блок / Lourens Blok) [2015, Нидерланды, Венгрия, фантастика, боевик, триллер, HDRip-AVC] VO + Original (Dut) + Sub (Eng, Dut)

 
Автор Сообщение

TorrentFilm ®

Пол:

Стаж: 2 года

Сообщений: 7741



Награды: Нет

Торрент-статистика

Создавать темы 15-Июл-2015 00:07

[Цитировать]

Номер семь / Седьмой
Boy 7


Страна: Нидерланды, Венгрия
Жанр: фантастика, боевик, триллер
Год выпуска: 2015
Продолжительность: 01:31:36
Перевод: одноголосый, закадровый [Andi], перевод [М. Васильев]
Субтитры: English, Dutch
Оригинальная аудиодорожка: Dutch
Режиссер: Лауренс Блок / Lourens Blok
В ролях: Маттис ван де Санде Бакхуйзен, Элла-Джун Генрард, Тиго Гернандт, Yannick Jozefzoon, Джуст Конинг, Халина Рейн, Рене Саутендейк, Менно Ван Бекум, Ганс Дагелет, Бо Шнайдер, Marike van Weelden, Aaron Easterbrooks
Описание:
В будущем государство контролирует жизнь каждого человека. Свободы личности больше не существует. Стоящий у власти диктатор приказывает собрать со всей страны талантливых молодых людей и отправить их на учебу в секретную академию, где из них сделают преданных слуг режима. В этой академии у студентов нет имен. Только номера...

Релиз:
Автор рипа: Stalker oK
Сэмпл
Качество видео: HDRip-AVC [BDRip 1080p]
Формат видео: MKV
Видео кодек: AVC
Аудио кодек: AC3
Видео: 1629 Кбит/сек, 960x504 (1.905), 24 кадр/сек, AVC
Аудио №1: русский, 192 Кбит/сек, 48 КГц, 16 бит, 2.0, AC3
Аудио №2: Dutch, 448 Кбит/сек, 48 КГц, 16 бит, 5.1, AC3
Навигация по главам: есть

MediaInfo

General
Unique ID : 208213384018907569473209593490713458367 (0x9CA470698A62BF1C8C6D5CCB2D99B6BF)
Complete name : M:\Рипы\Номер семь Boy 7\Boy.7.2015.HDRip-AVC.VO.1.45Gb...stalkerok.new-team.mkv
Format : Matroska
File size : 1.45 GiB
Duration : 1h 31mn
Overall bit rate : 2 271 Kbps
Movie name : Boy 7, 2015 (New-Team) (Rip by Stalker oK)
Encoded date : UTC 2015-07-04 15:04:29
Writing application : mkvmerge v7.9.0 ('Birds') 64bit
Writing library : libebml v1.3.1 + libmatroska v1.4.2
Video
ID : 5
Format : AVC
Format/Info : Advanced Video Codec
Format profile : High@L4.1
Format settings, CABAC : Yes
Format settings, ReFrames : 12 frames
Codec ID : V_MPEG4/ISO/AVC
Duration : 1h 31mn
Bit rate : 1 629 Kbps
Width : 960 pixels
Height : 504 pixels
Display aspect ratio : 1.905
Frame rate : 24.000 fps
Color space : YUV
Chroma subsampling : 4:2:0
Bit depth : 8 bits
Scan type : Progressive
Bits/(Pixel*Frame) : 0.140
Stream size : 1.01 GiB (70%)
Title : Boy 7, 2015 (New-Team) (Rip by Stalker oK)
Writing library : x264 core 146 r2538kMod 121396c
Encoding settings : cabac=1 / ref=12 / deblock=1:-2:-1 / analyse=0x3:0x133 / me=umh / subme=11 / psy=1 / fade_compensate=0.00 / psy_rd=1.05:0.15 / mixed_ref=1 / me_range=32 / chroma_me=1 / trellis=2 / 8x8dct=1 / cqm=0 / deadzone=21,11 / fast_pskip=0 / chroma_qp_offset=-3 / threads=12 / lookahead_threads=3 / sliced_threads=0 / nr=0 / decimate=0 / interlaced=0 / bluray_compat=0 / constrained_intra=0 / fgo=0 / bframes=14 / b_pyramid=2 / b_adapt=2 / b_bias=0 / direct=3 / weightb=1 / open_gop=0 / weightp=2 / keyint=240 / keyint_min=24 / scenecut=40 / intra_refresh=0 / rc_lookahead=40 / rc=2pass / mbtree=0 / bitrate=1629 / ratetol=1.0 / qcomp=0.70 / qpmin=0 / qpmax=69 / qpstep=4 / cplxblur=20.0 / qblur=0.5 / vbv_maxrate=50000 / vbv_bufsize=62500 / nal_hrd=none / filler=0 / ip_ratio=1.40 / pb_ratio=1.30 / aq=3:0.90
Audio #1
ID : 1
Format : AC-3
Format/Info : Audio Coding 3
Mode extension : CM (complete main)
Codec ID : A_AC3
Duration : 1h 31mn
Bit rate mode : Constant
Bit rate : 192 Kbps
Channel(s) : 2 channels
Channel positions : Front: L R
Sampling rate : 48.0 KHz
Bit depth : 16 bits
Compression mode : Lossy
Stream size : 126 MiB (8%)
Title : ANDI
Language : Russian
Audio #2
ID : 4
Format : AC-3
Format/Info : Audio Coding 3
Mode extension : CM (complete main)
Codec ID : A_AC3
Duration : 1h 31mn
Bit rate mode : Constant
Bit rate : 448 Kbps
Channel(s) : 6 channels
Channel positions : Front: L C R, Side: L R, LFE
Sampling rate : 48.0 KHz
Bit depth : 16 bits
Compression mode : Lossy
Stream size : 294 MiB (20%)
Language : Dutch
Text #1
ID : 2
Format : UTF-8
Codec ID : S_TEXT/UTF8
Codec ID/Info : UTF-8 Plain Text
Title : English
Language : English
Text #2
ID : 3
Format : UTF-8
Codec ID : S_TEXT/UTF8
Codec ID/Info : UTF-8 Plain Text
Title : Dutch
Language : Dutch
Menu
00:00:00.000 : en:00:00:00.000
00:09:46.875 : en:00:09:46.875
00:20:17.958 : en:00:20:17.958
00:30:36.708 : en:00:30:36.708
00:39:15.333 : en:00:39:15.333
00:48:31.208 : en:00:48:31.208
01:00:08.917 : en:01:00:08.917
01:09:52.458 : en:01:09:52.458
01:21:03.875 : en:01:21:03.875

Скриншоты

[Профиль] [ЛС]
Показать сообщения:    

Текущее время: Сегодня 10:49

Часовой пояс: GMT



Вы не можете начинать темы
Вы не можете отвечать на сообщения
Вы не можете редактировать свои сообщения
Вы не можете удалять свои сообщения
Вы не можете голосовать в опросах
Вы не можете прикреплять файлы к сообщениям
Вы не можете скачивать файлы