Номерной (Гульназ Макиева) [2015, Документальный, HDTV 1080i]

 
Автор Сообщение

TorrentFilm ®

Пол:

Стаж: 2 года

Сообщений: 7741



Награды: Нет

Торрент-статистика

Создавать темы 12-Июн-2015 00:04

[Цитировать]

Номерной
Дата выхода: 07/06/2015
Страна: Россия
Студия: Первый Канал HD
Жанр: Документальный
Продолжительность: 00:26:19
Авторы сценария: Гульназ Макиева, Светлана Карпекова
Продюсер и режиссeр: Гульназ Макиева
Описание: Его имя не указывали в титрах, у его фильмов были номера вместо названий, а сам он дал подписку о молчании в течение 40 лет.
Оператор Махмуд Рафиков проводил съёмки в эпицентре первых ядерных взрывов, он выжил после утечки радиации на подлодке, он был единственным оператором, который снимал приземление Юрия Гагарина, его мастерство ценили Сергей Королёв и Игорь Курчатов.
Сегодня ему 91 год. И он - уникальный свидетель эпохи - помнит всё до мелочей.
Он учился на третьем курсе Московского авиационного института, когда его пригласили на съёмки в фильме "Весна". Сегодня Махмуда Рафикова можно увидеть на некоторых кадрах знаменитой музыкальной комедии. Рафиков влюбляется в кино. Со второго раза поступает во ВГИК. По распределению попадает на студию "Центрнаучфильм".

Далее

Первые его кадры сняты на закрытых полигонах – Капустин Яр и Семипалатинск. Это - испытания ракет, атомных и водородных бомб. Его отправляют на самые опасные съёмки, потому что знают, что он сделает то, что нужно, несмотря на порой смертельную опасность.
Рафиковым снято более 40 ядерных испытаний. Удивительно, но каждый вылет обходится без последствий. Он кружит над облаком пепла, он снимает в самом эпицентре взрыва. Летчики получают Героев Советского Союза, коллеги по цеху снимают художественное кино, а он продолжает быть просто "номерным". Никто не знает, чем он занимается.
Облучение он получит там, где совсем не ждал - при испытании атомной подлодки. Произойдет утечка радиации, которая почти на два года отберет у него и здоровье, и работу, и чуть не лишит семьи. То, что у него родился сын, Махмуд Рафиков считает чудом.
От секретной работы его обещают освободить. Наконец-то сбудется его мечта – снимать музыкальные комедии. Но в его жизни случается неожиданный поворот – съёмки первого полета человека в космос. В нашем фильме Рафиков поделится воспоминаниями и сенсационными подробностями.
Несколько лет назад Махмуд Рафиков выкупил кинокамеру, с которой в буквальном смысле слова оставил свой след в истории. И теперь мы смотрим на события прошлого его глазами. Глазами неравнодушного и отважного человека - номерного оператора Махмуда Рафикова.
Тип релиза: HDTV 1080i
Контейнер: TS
Видео: MPEG4 Video (H264) 1920x1080 25.00fps 9854 kbps
Аудио: MPEG Audio 48000Hz stereo 192 kbps

MediaInfo

ОбщееИдентификатор : 1 (0x1)Полное имя : *:\Номерной.2015.HDTV.1080i.tsФормат : MPEG-TSРазмер файла : 1,94 ГбайтПродолжительность : 26 м.Режим общего битрейта : ПеременныйОбщий поток : 10,6 Мбит/сек
ВидеоИдентификатор : 1603 (0x643)Идентификатор меню : 603 (0x25B)Формат : AVCФормат/Информация : Advanced Video CodecПрофиль формата : High@L4Параметр CABAC формата : ДаПараметр ReFrames формата : 3 кадраИдентификатор кодека : 27Продолжительность : 26 м.Битрейт : 9854 Кбит/секШирина : 1920 пикселейВысота : 1080 пикселейСоотношение сторон : 16:9Частота кадров : 25,000 кадров/секСтандарт вещания : ComponentЦветовое пространство : YUVСубдискретизация насыщенности : 4:2:0Битовая глубина : 8 битТип развёртки : ЧересстрочнаяПорядок развёртки : Верхнее поле первоеБит/(Пиксели*Кадры) : 0.190Размер потока : 1,81 Гбайт (93%)Цветовой диапазон : LimitedОсновные цвета : BT.709Характеристики трансфера : BT.709Коэффициенты матрицы : BT.709
АудиоИдентификатор : 2603 (0xA2B)Идентификатор меню : 603 (0x25B)Формат : MPEG AudioВерсия формата : Version 1Профиль формата : Layer 2Идентификатор кодека : 3Продолжительность : 26 м.Вид битрейта : ПостоянныйБитрейт : 192 Кбит/секКаналы : 2 каналаЧастота : 48,0 КГцМетод сжатия : С потерямиЗадержка видео : -120 мс.Размер потока : 36,1 Мбайт (2%)Язык : Russian

Скриншоты

[Профиль] [ЛС]
Показать сообщения:    

Текущее время: Сегодня 16:57

Часовой пояс: GMT



Вы не можете начинать темы
Вы не можете отвечать на сообщения
Вы не можете редактировать свои сообщения
Вы не можете удалять свои сообщения
Вы не можете голосовать в опросах
Вы не можете прикреплять файлы к сообщениям
Вы не можете скачивать файлы