Номерной (Гульназ Макиева) [2015, Документальный, HDTV 720p]

 
Автор Сообщение

TorrentFilm ®

Пол:

Стаж: 2 года

Сообщений: 7741



Награды: Нет

Торрент-статистика

Создавать темы 10-Июн-2015 00:04

[Цитировать]

Номерной- Год выпуска: 2015
Страна: Россия
Студия: Первый Канал HD
Жанр: Документальный
Продолжительность: 0:26:19
Продюсер и режиссёр: Гульназ Макиева-Описание: Оператор Махмуд Рафиков проводил съёмки в эпицентре первых ядерных взрывов, он выжил после утечки радиации на подлодке, он был единственным оператором, который снимал приземление Юрия Гагарина, его мастерство ценили Сергей Королёв и Игорь Курчатов. Сегодня ему 91 год. И он - уникальный свидетель эпохи - помнит всё до мелочей.-Автор рипа: lrn
Автор записи: riper.am
Сэмпл: sendfile-Тип релиза: HDTV 720p
Контейнер: MKV
Видео: 1280x720 (16:9), 25,000 fps, H264, ~4000 kbps avg, ~0.174 bit/pixel
Аудио: 48 kHz, AC3 Dolby Digital, 2/0 (L,R) ch, ~192.00 kbps avg-

MediaInfo

GeneralUnique ID : 195726656744830869985808875839809908141 (0x933F9539D989627FB778A9786E27EDAD)Complete name : E:\uTorrent.Temp\Temp\Nomernoy.2015.HDTV.720p.x264-lrn.mkvFormat : MatroskaFormat version : Version 4 / Version 2File size : 789 MiBDuration : 26mn 19sOverall bit rate : 4 194 KbpsMovie name : Nomernoy.2015.HDTV.720p.x264-lrnEncoded date : UTC 2010-02-22 21:41:31Writing application : mkvmerge v5.9.0 ('On The Loose') built on Dec 9 2012 15:37:01Writing library : libebml v1.3.0 + libmatroska v1.4.0DURATION : 00:26:19.200000000NUMBER_OF_FRAMES : 39480NUMBER_OF_BYTES : 789547058_STATISTICS_WRITING_APP : mkvmerge v7.7.0 ('Six Voices') 32bit built on Feb 28 2015 23:23:00_STATISTICS_WRITING_DATE_UT : 2015-06-07 13:21:44_STATISTICS_TAGS : BPS DURATION NUMBER_OF_FRAMES NUMBER_OF_BYTES
VideoID : 1Format : AVCFormat/Info : Advanced Video CodecFormat profile : High@L4.1Format settings, CABAC : YesFormat settings, ReFrames : 8 framesCodec ID : V_MPEG4/ISO/AVCDuration : 26mn 19sBit rate : 4 000 KbpsWidth : 1 280 pixelsHeight : 720 pixelsDisplay aspect ratio : 16:9Frame rate mode : ConstantFrame rate : 25.000 fpsColor space : YUVChroma subsampling : 4:2:0Bit depth : 8 bitsScan type : ProgressiveBits/(Pixel*Frame) : 0.174Stream size : 738 MiB (93%)Writing library : x264 core 146 r2538 121396cEncoding settings : cabac=1 / ref=8 / deblock=1:-3:-3 / analyse=0x3:0x133 / me=umh / subme=9 / psy=1 / psy_rd=1.00:0.00 / mixed_ref=1 / me_range=32 / chroma_me=1 / trellis=2 / 8x8dct=1 / cqm=0 / deadzone=21,11 / fast_pskip=1 / chroma_qp_offset=-2 / threads=12 / lookahead_threads=2 / sliced_threads=0 / nr=0 / decimate=1 / interlaced=0 / bluray_compat=0 / constrained_intra=0 / bframes=8 / b_pyramid=2 / b_adapt=2 / b_bias=0 / direct=3 / weightb=1 / open_gop=0 / weightp=2 / keyint=250 / keyint_min=25 / scenecut=40 / intra_refresh=0 / rc_lookahead=50 / rc=2pass / mbtree=1 / bitrate=4000 / ratetol=1.0 / qcomp=0.60 / qpmin=0 / qpmax=69 / qpstep=4 / cplxblur=20.0 / qblur=0.5 / vbv_maxrate=62500 / vbv_bufsize=78125 / nal_hrd=none / filler=0 / ip_ratio=1.40 / aq=1:1.00Default : YesForced : No
AudioID : 2Format : AC-3Format/Info : Audio Coding 3Mode extension : CM (complete main)Format settings, Endianness : BigCodec ID : A_AC3Duration : 26mn 19sBit rate mode : ConstantBit rate : 192 KbpsChannel(s) : 2 channelsChannel positions : Front: L RSampling rate : 48.0 KHzCompression mode : LossyStream size : 36.1 MiB (5%)Language : RussianDefault : YesForced : No

x264 log

raw [info]: 1280x720p 1:1 @ 25/1 fps (cfr)x264 [info]: using SAR=1/1x264 [info]: using cpu capabilities: MMX2 SSE2Fast SSSE3 SSE4.2 AVXx264 [info]: profile High, level 4.1x264 [info]: frame I:273 Avg QP:16.65 size: 81102x264 [info]: frame P:12035 Avg QP:19.91 size: 31410x264 [info]: frame B:27172 Avg QP:22.07 size: 14331x264 [info]: consecutive B-frames: 5.2% 11.3% 13.0% 48.4% 9.0% 9.3% 1.7% 1.8% 0.3%x264 [info]: mb I I16..4: 11.6% 75.7% 12.8%x264 [info]: mb P I16..4: 6.1% 18.4% 1.4% P16..4: 45.7% 14.1% 7.8% 0.3% 0.1% skip: 6.2%x264 [info]: mb B I16..4: 0.6% 2.5% 0.1% B16..8: 39.6% 10.6% 1.8% direct:10.1% skip:34.7% L0:45.4% L1:44.1% BI:10.4%x264 [info]: 8x8 transform intra:72.5% inter:75.9%x264 [info]: direct mvs spatial:99.3% temporal:0.7%x264 [info]: coded y,uvDC,uvAC intra: 65.5% 56.3% 15.2% inter: 30.7% 28.2% 0.6%x264 [info]: i16 v,h,dc,p: 27% 14% 5% 54%x264 [info]: i8 v,h,dc,ddl,ddr,vr,hd,vl,hu: 12% 9% 6% 9% 13% 14% 13% 12% 11%x264 [info]: i4 v,h,dc,ddl,ddr,vr,hd,vl,hu: 13% 9% 4% 9% 15% 15% 13% 11% 11%x264 [info]: i8c dc,h,v,p: 37% 27% 20% 16%x264 [info]: Weighted P-Frames: Y:21.9% UV:11.2%x264 [info]: ref P L0: 49.5% 10.9% 16.0% 6.7% 5.3% 4.2% 3.7% 2.5% 1.0% 0.1%x264 [info]: ref B L0: 75.1% 11.3% 5.7% 3.1% 2.5% 1.6% 0.7%x264 [info]: ref B L1: 94.3% 5.7%x264 [info]: kb/s:3999.73encoded 39480 frames, 12.27 fps, 3999.73 kb/s

Скриншоты

-
[Профиль] [ЛС]
Показать сообщения:    

Текущее время: Сегодня 18:51

Часовой пояс: GMT



Вы не можете начинать темы
Вы не можете отвечать на сообщения
Вы не можете редактировать свои сообщения
Вы не можете удалять свои сообщения
Вы не можете голосовать в опросах
Вы не можете прикреплять файлы к сообщениям
Вы не можете скачивать файлы