НольНольНоль / ZeroZeroZero (Сезон 1 , Серия 1-8 из 8) (Янус Мец, Пабло Траперо) [2020, Криминал, драма, триллер, WEB-DLRip 1080p] [Красавец+Ю. Сербин+Eng]+[Subs Rus ,ENG]

 
Author Message

Враг Нароода ®

Gender:

Longevity: 5 years

Posts: 361



: 2 ()

За внесенный вклад в развитие сайта (1) Mega Seeder 1 (1)
Торрент-статистика

Post 21-Mar-2020 12:21

[Quote]

-- НольНольНоль/ ZeroZeroZero (Сезон 1 , Серия 1-8 из 8) - Полный Комплект -- --Год выпуска: 2020
Выпущено: Италия, Cattleya, Bartlebyfilm
Жанр: Криминал, драма, триллер
Продолжительность: 01:00:00
Сезон:1
Серия:1-8
Количество серий в сезоне:8--Озвучка #1: Профессиональный многоголосый - Красавец-Рекордз по заказу Amedia - Русский
Озвучка #2: Aвторский Одноголосый, Ю. Сербин - - Русский
Озвучка #3: Профессиональный многоголосый -Английский - Английский
Субтитры: Russian , English, English SDH
--Релиз Без Рекламы --MDB 8.2 --Режиссеры:
Янус Мец, Пабло Траперо, Стефано Соллима--В ролях: Андреа Райзборо, Дэйн ДеХаан, Гэбриел Бирн, Эрик Израэль Консуэло, Джузеппе Де Доменико, Маурисио Мендес, Арольд Торрес, Диего Катаньо, Хесус Лозаньо, Армандо Комонфорт Сантьяго-- В Калабрии глава мафиозного клана дон Муно прячется от врагов в подземном бункере и заказывает крупную партию кокаина на 900 млн евро. Дон Муно не знает, что внук Стефано его ненавидит, хочет скормить свиньям и планирует предательство. Между тем в Мехико спецотряд по борьбе с наркотиками проводит операцию, героем которой становится оперативник по кличке Вампиро. Никто не знает, что он работает на местных наркобаронов и должен обеспечить трафик той самой партии для дона Муно.-- --Качество :WEB-DLRip - HEVC 10bit - 1080p
Формат: MKV
Видео кодек: H265
Видео: 4454Кбит/сек,1920х800(2.40.1),в 25.000кадр/сек, HEVC (Main10@L5.2@Main)--Аудио Кодек:AC3
Аудио #1: MVO Кравец-Рекордз @DD5.1 AC3, 384 Kbps, 48.0 KHz, 6 ch- Кравец-Рекордз -Русский
Аудио #2: VO Ю. Сербин @DD5.1 AC3, 384 Kbps, 48.0 KHz, 6 ch- Ю. Сербин -Русский
Аудио #4: English l@DD5.1 E-AC3 ,640 Kbps, 48.0 KHz, 6 ch - English--

Доп. информация:

Звуковая дорожка сделана путем наложения чистого голоса озвучивателей на центральный канал оригинальной дорожки. Качество идентично звуковой дорожке.
--

Список эпизодов сезона


1 сезон 1 серия - Поставка - The Shipment
1 сезон 2 серия - Тампикское небо - Tampico Skies
1 сезон 3 серия - Миранда - Miranda
1 сезон 4 серия - Перегрузка - Transshipment
1 сезон 5 серия - Шариат - Sharia
1 сезон 6 серия - Единым путем - En el Mismo Camino
1 сезон 7 серия - Семья - Family
1 сезон 8 серия - Одной крови - Same Blood
--

MediaInfo 1-сезон

Общее
Уникальный идентификатор : 40917718705899308215206472669115888086 (0x1EC87749E2FA44C412061746AAF6B1D6)
Полное имя : F:\Nikolai.Baranov & PIRATIYA\НольНольНоль - ZeroZeroZero\ZeroZeroZero_2020_S01_HEVC- 10Bit_Н265_DD5.1_N.B_HD_1080_2xRus_Eng\ZeroZeroZero_S01E01_HEVC_Н265_DD5.1_N.B_HD_1080_2xRus_Eng.mkv
Формат : Matroska
Версия формата : Version 4
Размер файла : 2,35 Гбайт
Продолжительность : 57 м. 26 с.
Общий поток : 5864 Кбит/сек
Название фильма : ZeroZeroZeroe 2020 S01E01 @ Nikolai.Baranov & PIRATIYA
Дата кодирования : UTC 2020-03-16 07:55:45
Программа кодирования : mkvmerge v44.0.0 ('Domino') 64-bit
Библиотека кодирования : libebml v1.3.10 + libmatroska v1.5.2
Видео
Идентификатор : 1
Формат : HEVC
Формат/Информация : High Efficiency Video Coding
Профиль формата : Main@L5.2@Main
Идентификатор кодека : V_MPEGH/ISO/HEVC
Продолжительность : 57 м. 26 с.
Битрейт : 4454 Кбит/сек
Ширина : 1920 пикселей
Высота : 800 пикселей
Соотношение сторон : 2,40:1
Режим частоты кадров : Постоянный
Частота кадров : 25,000 кадров/сек
Цветовое пространство : YUV
Субдискретизация насыщенности : 4:2:0
Битовая глубина : 8 бит
Бит/(Пиксели*Кадры) : 0.116
Размер потока : 1,79 Гбайт (76%)
Заголовок : ZeroZeroZero_S01E01_HEVC_Н265_DD5.1_N.B_HD_1080_2xRus_Eng
Язык : Russian
Default : Да
Forced : Нет
Цветовой диапазон : Full
Основные цвета : BT.709
Характеристики трансфера : BT.709
Коэффициенты матрицы : BT.709
Аудио #1
Идентификатор : 4
Формат : AC-3
Формат/Информация : Audio Coding 3
Коммерческое название : Dolby Digital
Идентификатор кодека : A_AC3
Продолжительность : 57 м. 26 с.
Вид битрейта : Постоянный
Битрейт : 384 Кбит/сек
Каналы : 6 каналов
ChannelLayout : L R C LFE Ls Rs
Частота : 48,0 КГц
Частота кадров : 31,250 кадров/сек (1536 SPF)
Метод сжатия : С потерями
Размер потока : 158 Мбайт (7%)
Заголовок : MVO Кравец-Рекордз @DD5.1 AC3, 384 Kbps, 48.0 KHz, 6 ch
Язык : Russian
ServiceKind/String : Complete Main
Default : Да
Forced : Нет
Аудио #2
Идентификатор : 5
Формат : AC-3
Формат/Информация : Audio Coding 3
Коммерческое название : Dolby Digital
Идентификатор кодека : A_AC3
Продолжительность : 57 м. 26 с.
Вид битрейта : Постоянный
Битрейт : 384 Кбит/сек
Каналы : 6 каналов
ChannelLayout : L R C LFE Ls Rs
Частота : 48,0 КГц
Частота кадров : 31,250 кадров/сек (1536 SPF)
Метод сжатия : С потерями
Размер потока : 158 Мбайт (7%)
Заголовок : VO Ю. Сербин @DD5.1 AC3, 384 Kbps, 48.0 KHz, 6 ch
Язык : Russian
ServiceKind/String : Complete Main
Default : Нет
Forced : Нет
Аудио #3
Идентификатор : 6
Формат : E-AC-3
Формат/Информация : Enhanced AC-3
Коммерческое название : Dolby Digital Plus
Идентификатор кодека : A_EAC3
Продолжительность : 57 м. 26 с.
Вид битрейта : Постоянный
Битрейт : 640 Кбит/сек
Каналы : 6 каналов
ChannelLayout : L R C LFE Ls Rs
Частота : 48,0 КГц
Частота кадров : 31,250 кадров/сек (1536 SPF)
Метод сжатия : С потерями
Размер потока : 263 Мбайт (11%)
Заголовок : English l@DD5.1 E-AC3 ,640 Kbps, 48.0 KHz, 6 ch
Язык : English
ServiceKind/String : Complete Main
Default : Нет
Forced : Нет
Текст #1
Идентификатор : 2
Формат : UTF-8
Идентификатор кодека : S_TEXT/UTF8
Идентификатор кодека/Информация : UTF-8 Plain Text
Продолжительность : 23 с. 160 мс.
Битрейт : 138 бит/сек
ElementCount : 6
Размер потока : 402 байт (0%)
Заголовок : Поставка-Russian-Forced
Язык : Russian
Default : Да
Forced : Нет
Текст #2
Идентификатор : 3
Формат : UTF-8
Идентификатор кодека : S_TEXT/UTF8
Идентификатор кодека/Информация : UTF-8 Plain Text
Продолжительность : 55 м. 13 с.
Битрейт : 66 бит/сек
ElementCount : 416
Размер потока : 26,9 Кбайт (0%)
Заголовок : Поставка-Russian
Язык : Russian
Default : Нет
Forced : Нет
Текст #3
Идентификатор : 7
Формат : UTF-8
Идентификатор кодека : S_TEXT/UTF8
Идентификатор кодека/Информация : UTF-8 Plain Text
Продолжительность : 51 м. 53 с.
Битрейт : 17 бит/сек
ElementCount : 238
Размер потока : 6,61 Кбайт (0%)
Заголовок : The Shipment-Eng-Forced
Язык : English
Default : Нет
Forced : Нет
Текст #4
Идентификатор : 8
Формат : UTF-8
Идентификатор кодека : S_TEXT/UTF8
Идентификатор кодека/Информация : UTF-8 Plain Text
Продолжительность : 55 м. 22 с.
Битрейт : 37 бит/сек
ElementCount : 473
Размер потока : 15,2 Кбайт (0%)
Заголовок : The Shipment-English - SDH
Язык : English
Default : Нет
Forced : Нет
Текст #5
Идентификатор : 9
Формат : UTF-8
Идентификатор кодека : S_TEXT/UTF8
Идентификатор кодека/Информация : UTF-8 Plain Text
Продолжительность : 55 м. 22 с.
Битрейт : 37 бит/сек
ElementCount : 473
Размер потока : 15,2 Кбайт (0%)
Заголовок : The Shipment-English
Язык : English
Default : Нет
Forced : Нет
Меню
00:00:00.000 : en:Amazon Original
00:00:05.000 : en:Story about Powder
00:03:36.000 : en:The buyers
00:08:36.000 : en:Stefano prepares for his action
00:12:19.000 : en:Stefano tells what he thinks
00:17:56.000 : en:Opening Credits
00:19:48.000 : en:The Sellers
00:22:40.000 : en:Interception
00:25:04.000 : en:Gun fire in the town
00:27:40.000 : en:Torture the guy
00:31:25.000 : en:The Meeting
00:35:33.000 : en:Unexpected fire
00:37:50.000 : en:New Orleans, USA
00:40:49.000 : en:Chris is with Edward at racecourse
00:43:04.000 : en:Chris wonders about family business
00:46:43.000 : en:Emma argues with Edward
00:48:47.000 : en:Emma tries to fix it
00:51:05.000 : en:Monterrey, Mexico
00:55:56.000 : en:End Credits
--

Скриншоты

-- -1-сезон.--

Как закачать отдельный файл

1. Открыть торрент
2. Снять галки с тех файлов торрента, которые мы не хотим закачивать. Оставляем только на нужных нам файлах (файле).
3. Нажать О.К.
В клиенте utorrent
Инструкция
1) Открыть торрент

2) Снять галки с тех файлов торрента, которые мы не хотим закачивать:
* либо вручную, снимая с каждого файла галку( скрин №1)
* либо, нажав кнопку "Снять метки (Select None)", сняв сразу со всех файлов(скрин №2)
№1

№2

Оставляем только на нужных нам файлах (файле).

3)Нажать О.К
-- -- --Релиз от: Nikolai.Baranov & PIRATIYA . Поблагодарить:
ЯД: 410017546713876
-- -- -- --Время раздачи : 24/7--
[Profile] [PM]
Display posts from previous:    

The time now is: Today 16:09

All times are GMT



You cannot post new topics in this forum
You cannot reply to topics in this forum
You cannot edit your posts in this forum
You cannot delete your posts in this forum
You cannot vote in polls in this forum
You cannot attach files in this forum
You cannot download files in this forum