Ной / Noah (2014) BDRip 720p | iTunes

 
Автор Сообщение

sergej644 ®

Пол:

Стаж: 4 года 11 месяцев

Сообщений: 6046

Откуда: Soviet Union



Награды: Нет

Торрент-статистика

Создавать темы 29-Янв-2015 21:53

[Цитировать]

Информация о фильме
Название: Ной
Оригинальное название: Noah
Год выхода: 2014
Жанр: приключения, драма, фэнтези
Режиссер: Даррен Аронофски
В ролях: Рассел Кроу, Рэй Уинстон, Эмма Уотсон, Кевин Дюран, Дженнифер Коннелли, Логан Лерман, Энтони Хопкинс, Марк Марголис, Ник Нолти, Дуглас Бут
О фильме: История отца, воина и спасителя Человечества и всего живого на Земле.

Выпущено: США / Disruption Entertainment, Paramount Pictures, Protozoa Pictures, Regency Enterprises
Продолжительность: 02:17:53
Перевод: Профессиональный (полное дублирование) - iTunes
Файл
Качество: BDRip 720p
Формат: MKV
Видео: MPEG4/AVC, 1280х694 (1.85:1), 5261 Кбит/сек, 23.976 кадра/сек
Аудио 1: AC3, 6 каналов, 384 Кбит/сек | iTunes
Аудио 2: AC3, 6 каналов, 640 Кбит/сек | Английский
Субтитры: Русские, английские (Full, SDH)
Навигация по главам: Есть

MediaInfo:

Общее
Уникальный идентификатор : 245072988887368165031893973083271528790 (0xB85F573DBE168B04935519E06D650156)
Полное имя : Noah. (2014) BDRip 720p (1).mkv
Формат : Matroska
Версия формата : Version 2
Размер файла : 6,04 Гбайт
Продолжительность : 2 ч. 17 м.
Общий поток : 6276 Кбит/сек
Название фильма : Noah. 2014
Дата кодирования : UTC 2014-07-14 20:25:23
Программа кодирования : mkvmerge v5.8.0 ('No Sleep / Pillow') built on Sep 2 2012 15:37:04
Библиотека кодирования : libebml v1.2.3 + libmatroska v1.3.0
Видео
Идентификатор : 1
Формат : AVC
Формат/Информация : Advanced Video Codec
Профиль формата : High@L4.1
Параметр CABAC формата : Да
Параметр ReFrames формата : 8 кадров
Идентификатор кодека : V_MPEG4/ISO/AVC
Продолжительность : 2 ч. 17 м.
Битрейт : 5261 Кбит/сек
Ширина : 1280 пикселей
Высота : 694 пикселя
Соотношение сторон : 1,85:1
Режим частоты кадров : Постоянный
Частота кадров : 23,976 кадра/сек
Цветовое пространство : YUV
Субдискретизация насыщенности : 4:2:0
Битовая глубина : 8 бит
Тип развёртки : Прогрессивная
Бит/(Пиксели*Кадры) : 0.247
Размер потока : 4,94 Гбайт (82%)
Заголовок : CHD
Библиотека кодирования : x264 core 142 r2431 ac76440
Настройки программы : cabac=1 / ref=8 / deblock=1:-3:-3 / analyse=0x3:0x113 / me=umh / subme=10 / psy=1 / psy_rd=1.05:0.10 / mixed_ref=1 / me_range=32 / chroma_me=1 / trellis=2 / 8x8dct=1 / cqm=0 / deadzone=21,11 / fast_pskip=0 / chroma_qp_offset=-2 / threads=18 / lookahead_threads=1 / sliced_threads=0 / nr=0 / decimate=1 / interlaced=0 / bluray_compat=0 / constrained_intra=0 / bframes=6 / b_pyramid=2 / b_adapt=2 / b_bias=0 / direct=3 / weightb=1 / open_gop=0 / weightp=2 / keyint=250 / keyint_min=23 / scenecut=40 / intra_refresh=0 / rc=2pass / mbtree=0 / bitrate=5261 / ratetol=1.0 / qcomp=0.70 / qpmin=0 / qpmax=69 / qpstep=4 / cplxblur=20.0 / qblur=0.5 / ip_ratio=1.40 / pb_ratio=1.30 / aq=2:0.90
Язык : English
Default : Да
Forced : Нет
Аудио #1
Идентификатор : 2
Формат : AC-3
Формат/Информация : Audio Coding 3
Расширение режима : CM (complete main)
Параметр Endianness формата : Big
Идентификатор кодека : A_AC3
Продолжительность : 2 ч. 17 м.
Вид битрейта : Постоянный
Битрейт : 384 Кбит/сек
Каналы : 6 каналов
Расположение каналов : Front: L C R, Side: L R, LFE
Частота : 48,0 КГц
Битовая глубина : 16 бит
Метод сжатия : С потерями
Размер потока : 379 Мбайт (6%)
Заголовок : iTunes
Язык : Russian
Default : Да
Forced : Нет
Аудио #2
Идентификатор : 3
Формат : AC-3
Формат/Информация : Audio Coding 3
Расширение режима : CM (complete main)
Параметр Endianness формата : Big
Идентификатор кодека : A_AC3
Продолжительность : 2 ч. 17 м.
Вид битрейта : Постоянный
Битрейт : 640 Кбит/сек
Каналы : 6 каналов
Расположение каналов : Front: L C R, Side: L R, LFE
Частота : 48,0 КГц
Битовая глубина : 16 бит
Метод сжатия : С потерями
Размер потока : 631 Мбайт (10%)
Язык : English
Default : Нет
Forced : Нет
Текст #1
Идентификатор : 4
Формат : UTF-8
Идентификатор кодека : S_TEXT/UTF8
Идентификатор кодека/Информация : UTF-8 Plain Text
Заголовок : Full
Язык : Russian
Default : Нет
Forced : Нет
Текст #2
Идентификатор : 5
Формат : UTF-8
Идентификатор кодека : S_TEXT/UTF8
Идентификатор кодека/Информация : UTF-8 Plain Text
Заголовок : Full
Язык : English
Default : Нет
Forced : Нет
Текст #3
Идентификатор : 6
Формат : UTF-8
Идентификатор кодека : S_TEXT/UTF8
Идентификатор кодека/Информация : UTF-8 Plain Text
Заголовок : SDH
Язык : English
Default : Нет
Forced : Нет
Меню
00:00:00.000 : en:00:00:00.000
00:04:48.955 : en:00:04:48.955
00:08:37.267 : en:00:08:37.267
00:12:23.034 : en:00:12:23.034
00:18:43.080 : en:00:18:43.080
00:23:25.487 : en:00:23:25.487
00:32:06.424 : en:00:32:06.424
00:37:27.203 : en:00:37:27.203
00:42:50.735 : en:00:42:50.735
00:54:35.647 : en:00:54:35.647
01:01:14.963 : en:01:01:14.963
01:03:28.596 : en:01:03:28.596
01:09:33.795 : en:01:09:33.795
01:19:18.337 : en:01:19:18.337
01:21:56.537 : en:01:21:56.537
01:29:12.347 : en:01:29:12.347
01:34:02.053 : en:01:34:02.053
01:40:27.355 : en:01:40:27.355
01:49:23.098 : en:01:49:23.098
01:55:57.826 : en:01:55:57.826
02:00:37.230 : en:02:00:37.230
02:11:32.676 : en:02:11:32.676

Скриншоты

[Профиль] [ЛС]
Кто просматривает тему:

Форум Тема Автор Размер
Фильмы (HD Rips | 720p, 1080p) Ной / Noah (2014) BDRip 1080p от ExKinoRay | D, A | Лицензия sergej644 16.09 GB
Фильмы (HD Rips | 720p, 1080p) Ной / Noah (2014) BDRip 720p sergej644 11.89 GB
Фильмы 2014 года Ной / Noah (Даррен Аронофски / Darren Aronofsky) [2014 г, США, драма, приключения, фэнтези, BDRip] Dub + Original + Sub (Rus, Eng) sergej644 2.55 GB
Фильмы 2014 года Ной / Noah (Даррен Аронофски / Darren Aronofsky) [2014 г., США, драма, приключения, фэнтези, BDRip-AVC] Dub (CEE) + Original Eng + Sub (Rus, Ukr, Eng) reversefile 2.92 GB
Фильмы 2014 года Ной / Noah (Даррен Аронофски / Darren Aronofsky) [2014 г., США, драма, приключения, фэнтези, BDRip-AVC] Dub + Original (Eng) + Sub (rus, eng) reversefile 2.18 GB
Фильмы 2014 года Ной / Noah (Даррен Аронофски / Darren Aronofsky) [2014 г., США, драма, приключения, фэнтези, BDRip-AVC] Dub + Sub (rus, eng) reversefile 748 MB
Фильмы 2014 года Ной / Noah (Даррен Аронофски / Darren Aronofsky) [2014 г., США, драма, приключения, фэнтези, HDRip] Dub (Line) bot 2.05 GB
Фильмы 2014 года Ной / Noah (Даррен Аронофски / Darren Aronofsky) [2014 г., США, драма, приключения, фэнтези, HDRip] Dub (Line) + Original (Eng) bot 2.74 GB
Показать сообщения:    

Текущее время: Сегодня 14:58

Часовой пояс: GMT



Вы не можете начинать темы
Вы не можете отвечать на сообщения
Вы не можете редактировать свои сообщения
Вы не можете удалять свои сообщения
Вы не можете голосовать в опросах
Вы не можете прикреплять файлы к сообщениям
Вы не можете скачивать файлы