Ной / Noah (2014) BDRip 1080p от ExKinoRay | D, A | Лицензия

 
Автор Сообщение

sergej644 ®

Пол:

Стаж: 4 года 11 месяцев

Сообщений: 6046

Откуда: Soviet Union



Награды: Нет

Торрент-статистика

Создавать темы 22-Янв-2015 10:23

[Цитировать]

Название: Ной
Оригинальное название: Noah
Год выпуска: 2014
Жанр: Драма, приключения
Выпущено: США, Disruption Entertainment, New Regency Pictures, Protozoa Pictures
Режиссер: Даррен Аронофски
В ролях: Расселл Кроу, Дженнифер Коннелли, Рэй Уинстон, Энтони Хопкинс, Эмма Уотсон, Логан Лерман, Дуглас Бут, Ник Нолти, Марк Марголис, Кевин Дюран, Лео МакХью Кэрролл, Мартон Чокаш, Финн Уиттрок, Мэдисон Девенпорт, Гэвин Касалежно, Нолан Гросс, Скайлар Бурк, Дакота Гойо, Ариан Райнхарт, Адам Гриффит
О фильме: В этом фильме, главная роль в котором досталась Расселу Кроу, зрителю дается возможность, вместе с главными героями пережить библейскую историю о мужественном и мудром человеке, по имени Ной. Мир по уши погряз в грехах и насилии, Господь решил очистить Землю, оставив только избранных. Грядет всемирный потоп, наш герой начинает строить большой ковчег, но никто ему не верит, больше того, многие считают Нойа, просто сумасшедшим. Его уже не остановить, он должен выполнить важную миссию, после которой мир возродится заново. Собрав родных и близких, множество зверей и птиц, он отправится в опасное путешествие на огромном ковчеге..

Файл
Качество: BDRip (1080p)
Видео: MPEG-4 AVC, 12222 Кбит/с, 1920x1040, 23.976 кадр/с
Аудио: Русский (AC3, 6 ch, 640 Кбит/с), (DTS, 6 ch, 1510 кбит/c), украинский (AC3, 2 ch, 192 Кбит/с), английский (DTS, 6 ch, 1509 кбит/c)
Размер: 16.09 ГБ
Продолжительность: 02:17:53
Перевод: Дублированный, авторский
Субтитры: Русские, украинские, английские
Сохранены оригинальные чаптеры как на Blu-Ray.
Аудио1: Русский (AC3, 6 ch, 640 Кбит/с) - Дублированный (Лицензия СЕЕ)
Аудио2: Украинский (AC3, 2 ch, 192 Кбит/с) - Дублированный (iTunes Russia)
Аудио3: Русский (AC3, 6 ch, 640 Кбит/с) - Д.Есарев
Аудио4: Русский (DTS, 6 ch, 1510 Кбит/с) - Д.Есарев

Инфо-файл

x264 [info]: frame I:1319 Avg QP:17.00 size:366330
x264 [info]: frame P:42132 Avg QP:19.92 size:103966
x264 [info]: frame B:154906 Avg QP:21.84 size: 50147
-------------------------------------------------------
Общее
Уникальный идентификатор : 191180521469614830639080256883535425850 (0x8FD40773A26341189538E665E544B13A)
Полное имя : D:ЗагрузкиNoah.2014.x264.BDRip.(1080p).ExKinoRay.mkv
Формат : Matroska
Версия формата : Version 2
Размер файла : 16,1 Гбайт
Продолжительность : 2 ч. 17 м.
Общий поток : 16,7 Мбит/сек
Название фильма : Ной.2014.Rip by: ollan
Дата кодирования : UTC 2014-07-25 14:46:19
Программа кодирования : mkvmerge v5.6.0 ('Kenya Kane') built on May 27 2012 16:44:04
Библиотека кодирования : libebml v1.2.3 + libmatroska v1.3.0
Видео
Идентификатор : 1
Формат : AVC
Формат/Информация : Advanced Video Codec
Профиль формата : High@L4.1
Параметр CABAC формата : Да
Параметр ReFrames формата : 5 кадров
Идентификатор кодека : V_MPEG4/ISO/AVC
Продолжительность : 2 ч. 17 м.
Битрейт : 12,2 Мбит/сек
Ширина : 1920 пикселей
Высота : 1040 пикселей
Соотношение сторон : 1,85:1
Режим частоты кадров : Постоянный
Частота кадров : 23,976 кадра/сек
Цветовое пространство : YUV
Субдискретизация насыщенности : 4:2:0
Битовая глубина : 8 бит
Тип развёртки : Прогрессивная
Бит/(Пиксели*Кадры) : 0.255
Размер потока : 11,4 Гбайт (71%)
Библиотека кодирования : x264 core 125 r2200 999b753
Настройки программы : cabac=1 / ref=5 / deblock=1:-3:-3 / analyse=0x3:0x133 / me=umh / subme=11 / psy=1 / psy_rd=1.00:0.10 / mixed_ref=1 / me_range=32 / chroma_me=1 / trellis=2 / 8x8dct=1 / cqm=0 / deadzone=21,11 / fast_pskip=0 / chroma_qp_offset=-3 / threads=12 / lookahead_threads=2 / sliced_threads=0 / nr=0 / decimate=0 / interlaced=0 / bluray_compat=0 / constrained_intra=0 / bframes=9 / b_pyramid=2 / b_adapt=2 / b_bias=0 / direct=3 / weightb=1 / open_gop=0 / weightp=2 / keyint=240 / keyint_min=23 / scenecut=40 / intra_refresh=0 / rc_lookahead=40 / rc=2pass / mbtree=1 / bitrate=12222 / ratetol=1.0 / qcomp=0.60 / qpmin=0 / qpmax=69 / qpstep=4 / cplxblur=20.0 / qblur=0.5 / ip_ratio=1.40 / aq=1:1.00
Язык : English
Default : Да
Forced : Нет
Аудио #1
Идентификатор : 2
Формат : AC-3
Формат/Информация : Audio Coding 3
Расширение режима : CM (complete main)
Параметр Endianness формата : Big
Идентификатор кодека : A_AC3
Продолжительность : 2 ч. 17 м.
Вид битрейта : Постоянный
Битрейт : 640 Кбит/сек
Каналы : 6 каналов
Расположение каналов : Front: L C R, Side: L R, LFE
Частота : 48,0 КГц
Битовая глубина : 16 бит
Метод сжатия : С потерями
Размер потока : 631 Мбайт (4%)
Заголовок : Дублированный (Лицензия СЕЕ)
Язык : Russian
Default : Да
Forced : Нет
Аудио #2
Идентификатор : 3
Формат : AC-3
Формат/Информация : Audio Coding 3
Расширение режима : CM (complete main)
Параметр Endianness формата : Big
Идентификатор кодека : A_AC3
Продолжительность : 2 ч. 17 м.
Вид битрейта : Постоянный
Битрейт : 192 Кбит/сек
Каналы : 2 канала
Расположение каналов : Front: L R
Частота : 48,0 КГц
Битовая глубина : 16 бит
Метод сжатия : С потерями
Размер потока : 189 Мбайт (1%)
Заголовок : Дублированный
Язык : Ukrainian
Default : Нет
Forced : Нет
Аудио #3
Идентификатор : 4
Формат : AC-3
Формат/Информация : Audio Coding 3
Расширение режима : CM (complete main)
Параметр Endianness формата : Big
Идентификатор кодека : A_AC3
Продолжительность : 2 ч. 17 м.
Вид битрейта : Постоянный
Битрейт : 640 Кбит/сек
Каналы : 6 каналов
Расположение каналов : Front: L C R, Side: L R, LFE
Частота : 48,0 КГц
Битовая глубина : 16 бит
Метод сжатия : С потерями
Размер потока : 631 Мбайт (4%)
Заголовок : Авторский одноголосый (Д.Есарев)
Язык : Russian
Default : Нет
Forced : Нет
Аудио #4
Идентификатор : 5
Формат : DTS
Формат/Информация : Digital Theater Systems
Режим : 16
Параметр Endianness формата : Big
Идентификатор кодека : A_DTS
Продолжительность : 2 ч. 17 м.
Вид битрейта : Постоянный
Битрейт : 1510 Кбит/сек
Каналы : 6 каналов
Расположение каналов : Front: L C R, Side: L R, LFE
Частота : 48,0 КГц
Битовая глубина : 24 бит
Метод сжатия : С потерями
Размер потока : 1,45 Гбайт (9%)
Заголовок : Авторский одноголосый (Д.Есарев)
Язык : Russian
Default : Нет
Forced : Нет
Аудио #5
Идентификатор : 6
Формат : DTS
Формат/Информация : Digital Theater Systems
Режим : 16
Параметр Endianness формата : Big
Идентификатор кодека : A_DTS
Продолжительность : 2 ч. 17 м.
Вид битрейта : Постоянный
Битрейт : 1509 Кбит/сек
Каналы : 6 каналов
Расположение каналов : Front: L C R, Side: L R, LFE
Частота : 48,0 КГц
Битовая глубина : 24 бит
Метод сжатия : С потерями
Размер потока : 1,45 Гбайт (9%)
Язык : English
Default : Нет
Forced : Нет
Текст #1
Идентификатор : 7
Формат : UTF-8
Идентификатор кодека : S_TEXT/UTF8
Идентификатор кодека/Информация : UTF-8 Plain Text
Заголовок : Forced
Язык : Russian
Default : Да
Forced : Нет
Текст #2
Идентификатор : 8
Формат : UTF-8
Идентификатор кодека : S_TEXT/UTF8
Идентификатор кодека/Информация : UTF-8 Plain Text
Заголовок : Full
Язык : Russian
Default : Нет
Forced : Нет
Текст #3
Идентификатор : 9
Формат : UTF-8
Идентификатор кодека : S_TEXT/UTF8
Идентификатор кодека/Информация : UTF-8 Plain Text
Заголовок : Full
Язык : Ukrainian
Default : Нет
Forced : Нет
Текст #4
Идентификатор : 10
Формат : UTF-8
Идентификатор кодека : S_TEXT/UTF8
Идентификатор кодека/Информация : UTF-8 Plain Text
Заголовок : Full
Язык : English
Default : Нет
Forced : Нет
Меню
00:00:00.000 : en:Chapter 01
00:04:48.954 : en:Chapter 02
00:08:37.265 : en:Chapter 03
00:12:23.033 : en:Chapter 04
00:18:43.079 : en:Chapter 05
00:23:25.487 : en:Chapter 06
00:32:06.423 : en:Chapter 07
00:37:27.202 : en:Chapter 08
00:42:50.733 : en:Chapter 09
00:54:35.645 : en:Chapter 10
01:01:14.961 : en:Chapter 11
01:03:28.595 : en:Chapter 12
01:09:33.792 : en:Chapter 13
01:19:18.336 : en:Chapter 14
01:21:56.536 : en:Chapter 15
01:29:12.345 : en:Chapter 16
01:34:02.052 : en:Chapter 17
01:40:27.354 : en:Chapter 18
01:49:23.097 : en:Chapter 19
01:55:57.824 : en:Chapter 20
02:00:37.229 : en:Chapter 21
02:11:32.676 : en:Chapter 22
02:17:52.888 : en:Chapter 23

Скриншоты

[Профиль] [ЛС]
Кто просматривает тему:

Форум Тема Автор Размер
Фильмы (HD Rips | 720p, 1080p) Ной / Noah (2014) BDRip 720p sergej644 11.89 GB
Фильмы (HD Rips | 720p, 1080p) Ной / Noah (2014) BDRip 720p | iTunes sergej644 6.04 GB
Фильмы 2014 года Ной / Noah (Даррен Аронофски / Darren Aronofsky) [2014 г, США, драма, приключения, фэнтези, BDRip] Dub + Original + Sub (Rus, Eng) sergej644 2.55 GB
Фильмы 2014 года Ной / Noah (Даррен Аронофски / Darren Aronofsky) [2014 г., США, драма, приключения, фэнтези, BDRip-AVC] Dub (CEE) + Original Eng + Sub (Rus, Ukr, Eng) reversefile 2.92 GB
Фильмы 2014 года Ной / Noah (Даррен Аронофски / Darren Aronofsky) [2014 г., США, драма, приключения, фэнтези, BDRip-AVC] Dub + Original (Eng) + Sub (rus, eng) reversefile 2.18 GB
Фильмы 2014 года Ной / Noah (Даррен Аронофски / Darren Aronofsky) [2014 г., США, драма, приключения, фэнтези, BDRip-AVC] Dub + Sub (rus, eng) reversefile 748 MB
Фильмы 2014 года Ной / Noah (Даррен Аронофски / Darren Aronofsky) [2014 г., США, драма, приключения, фэнтези, HDRip] Dub (Line) bot 2.05 GB
Фильмы 2014 года Ной / Noah (Даррен Аронофски / Darren Aronofsky) [2014 г., США, драма, приключения, фэнтези, HDRip] Dub (Line) + Original (Eng) bot 2.74 GB
Показать сообщения:    

Текущее время: Сегодня 14:09

Часовой пояс: GMT



Вы не можете начинать темы
Вы не можете отвечать на сообщения
Вы не можете редактировать свои сообщения
Вы не можете удалять свои сообщения
Вы не можете голосовать в опросах
Вы не можете прикреплять файлы к сообщениям
Вы не можете скачивать файлы