Ной / Noah (Даррен Аронофски / Darren Aronofsky) [2014 г., США, драма, приключения, фэнтези, BDRip-AVC] Dub (CEE) + Original Eng + Sub (Rus, Ukr, Eng)

 
Автор Сообщение

reversefile ®

Пол:

Стаж: 4 года 5 месяцев

Сообщений: 842

Откуда: ReverseFile.org



Награды: Нет

Торрент-статистика

Создавать темы 13-Авг-2014 08:54

[Цитировать]

-Ной / Noah«Конец — это только начало» Страна: США
Студия: Paramount Pictures - Disruption Entertainment - Protozoa Pictures - Regency Enterprises
Жанр: Драма, приключения, фэнтези
Год выпуска: 2014
Продолжительность: 02:17:53-Перевод: Профессиональный (полное дублирование)
Оригинальная аудиодорожка: английский
Cубтитры: русские, украинские, английские
Режиссер: Даррен Аронофски / Darren Aronofsky
В ролях: Рассел Кроу, Дженнифер Коннелли, Рэй Уинстон, Энтони Хопкинс, Эмма Уотсон, Логан Лерман, Дуглас Бут, Ник Нолти, Марк Марголис, Кевин Дюран
Описание: История отца, воина и спасителя Человечества и всего живого на Земле.-
Сэмпл: скачать-Релиз от -
Автор рипа: Elheym
Качество: BDRip-AVC (источник: / Blu-ray Disc CEE / 1080p)
Контейнер: MKV
Видео: 1024x554 (1.85:1), 23.976 fps, MPEG-4 AVC, ~2257 kbps avg, 0.166 bit/pixel
Аудио #1: Русский: АС3, 5.1, 48 kHz, ~384 Кбит/с | Профессиональный (полное дублирование) |
Аудио #2: Английский: АС3, 5.1, 48 kHz, ~384 Кбит/с | Оригинал |
Субтитры: Русские (полные), Украинские (полные), Английские (полные)
Главы: Присутствуют, сохранены оригинальные
Размер: 2.91 GB

MediaInfo

Уникальный идентификатор : 228819357939859525059223713677223706839 (0xAC25015D626B7FA5882DF8440B7CC0D7)
Полное имя : Noah.2014.DUAL.BDRip-AVC.x264.AC3.-HQCLUB.mkv
Формат : Matroska
Версия формата : Version 2
Размер файла : 2,92 Гбайт
Продолжительность : 2 ч. 17 м.
Общий поток : 3027 Кбит/сек
Дата кодирования : UTC 2014-07-27 12:32:04
Программа кодирования : mkvmerge v5.2.0 ('I can't explain') built on Dec 18 2011 18:12:03
Библиотека кодирования : libebml v1.2.3 + libmatroska v1.3.0
Видео
Идентификатор : 1
Формат : AVC
Формат/Информация : Advanced Video Codec
Профиль формата : High@L4.1
Параметр CABAC формата : Да
Параметр ReFrames формата : 14 кадров
Идентификатор кодека : V_MPEG4/ISO/AVC
Продолжительность : 2 ч. 17 м.
Битрейт : 2257 Кбит/сек
Ширина : 1024 пикселя
Высота : 554 пикселя
Соотношение сторон : 1,85:1
Режим частоты кадров : Постоянный
Частота кадров : 23,976 кадра/сек
Цветовое пространство : YUV
Субдискретизация насыщенности : 4:2:0
Битовая глубина : 8 бит
Тип развёртки : Прогрессивная
Бит/(Пиксели*Кадры) : 0.166
Размер потока : 2,12 Гбайт (73%)
Заголовок : Ной / Noah (2014) BDRip-AVC by HQCLUB [Elheym]
Библиотека кодирования : x264 core 142 r2431 ac76440
Настройки программы : cabac=1 / ref=14 / deblock=1:-3:-2 / analyse=0x3:0x113 / me=umh / subme=11 / psy=1 / psy_rd=1.00:0.00 / mixed_ref=1 / me_range=32 / chroma_me=1 / trellis=2 / 8x8dct=1 / cqm=0 / deadzone=21,11 / fast_pskip=1 / chroma_qp_offset=-4 / threads=6 / lookahead_threads=1 / sliced_threads=0 / nr=0 / decimate=1 / interlaced=0 / bluray_compat=0 / constrained_intra=0 / bframes=14 / b_pyramid=2 / b_adapt=2 / b_bias=0 / direct=3 / weightb=1 / open_gop=0 / weightp=2 / keyint=240 / keyint_min=23 / scenecut=40 / intra_refresh=0 / rc_lookahead=40 / rc=2pass / mbtree=1 / bitrate=2257 / ratetol=1.0 / qcomp=0.60 / qpmin=10 / qpmax=69 / qpstep=4 / cplxblur=20.0 / qblur=0.5 / vbv_maxrate=50000 / vbv_bufsize=62500 / nal_hrd=none / filler=0 / ip_ratio=1.40 / aq=1:0.90
Язык : English
Default : Да
Forced : Нет
Аудио #1
Идентификатор : 2
Формат : AC-3
Формат/Информация : Audio Coding 3
Расширение режима : CM (complete main)
Параметр Endianness формата : Big
Идентификатор кодека : A_AC3
Продолжительность : 2 ч. 17 м.
Вид битрейта : Постоянный
Битрейт : 384 Кбит/сек
Каналы : 6 каналов
Расположение каналов : Front: L C R, Side: L R, LFE
Частота : 48,0 КГц
Битовая глубина : 16 бит
Метод сжатия : С потерями
Размер потока : 379 Мбайт (13%)
Заголовок : АС3 5.1 @ 384 kbps - Dub, CEE
Язык : Russian
Default : Нет
Forced : Нет
Аудио #2
Идентификатор : 3
Формат : AC-3
Формат/Информация : Audio Coding 3
Расширение режима : CM (complete main)
Параметр Endianness формата : Big
Идентификатор кодека : A_AC3
Продолжительность : 2 ч. 17 м.
Вид битрейта : Постоянный
Битрейт : 384 Кбит/сек
Каналы : 6 каналов
Расположение каналов : Front: L C R, Side: L R, LFE
Частота : 48,0 КГц
Битовая глубина : 16 бит
Метод сжатия : С потерями
Размер потока : 379 Мбайт (13%)
Заголовок : АС3 5.1 @ 384 kbps - Original
Язык : English
Default : Нет
Forced : Нет
Текст #1
Идентификатор : 4
Формат : UTF-8
Идентификатор кодека : S_TEXT/UTF8
Идентификатор кодека/Информация : UTF-8 Plain Text
Заголовок : Full
Язык : Russian
Default : Нет
Forced : Нет
Текст #2
Идентификатор : 5
Формат : UTF-8
Идентификатор кодека : S_TEXT/UTF8
Идентификатор кодека/Информация : UTF-8 Plain Text
Заголовок : Full
Язык : Ukrainian
Default : Нет
Forced : Нет
Текст #3
Идентификатор : 6
Формат : UTF-8
Идентификатор кодека : S_TEXT/UTF8
Идентификатор кодека/Информация : UTF-8 Plain Text
Заголовок : Full
Язык : English
Default : Нет
Forced : Нет
Меню
00:00:00.000 : :Chapter 01
00:04:48.955 : :Chapter 02
00:08:37.266 : :Chapter 03
00:12:23.033 : :Chapter 04
00:18:43.080 : :Chapter 05
00:23:25.487 : :Chapter 06
00:32:06.424 : :Chapter 07
00:37:27.203 : :Chapter 08
00:42:50.734 : :Chapter 09
00:54:35.647 : :Chapter 10
01:01:14.962 : :Chapter 11
01:03:28.596 : :Chapter 12
01:09:33.794 : :Chapter 13
01:19:18.336 : :Chapter 14
01:21:56.536 : :Chapter 15
01:29:12.347 : :Chapter 16
01:34:02.053 : :Chapter 17
01:40:27.354 : :Chapter 18
01:49:23.098 : :Chapter 19
01:55:57.825 : :Chapter 20
02:00:37.230 : :Chapter 21
02:11:32.676 : :Chapter 22
02:17:52.889 : :Chapter 23

x264 log

x264 [info]: frame I:1440 Avg QP:16.03 size:101310
x264 [info]: frame P:44037 Avg QP:19.26 size: 25911
x264 [info]: frame B:152881 Avg QP:21.98 size: 6847
x264 [info]: consecutive B-frames: 3.1% 3.7% 10.8% 13.0% 15.7% 35.1% 7.0% 2.6% 2.0% 1.6% 1.6% 1.3% 1.0% 1.1% 0.5%
x264 [info]: ref P L0: 49.5% 10.0% 15.8% 5.5% 4.4% 3.2% 2.9% 1.6% 1.5% 1.2% 1.2% 1.0% 1.0% 1.0% 0.3% 0.0%
x264 [info]: ref B L0: 75.6% 10.7% 4.9% 2.3% 1.6% 1.3% 1.1% 0.6% 0.5% 0.5% 0.4% 0.3% 0.1%
x264 [info]: ref B L1: 92.4% 7.6%

Скриншоты

[Профиль] [ЛС]
Показать сообщения:    

Текущее время: Сегодня 04:46

Часовой пояс: GMT



Вы не можете начинать темы
Вы не можете отвечать на сообщения
Вы не можете редактировать свои сообщения
Вы не можете удалять свои сообщения
Вы не можете голосовать в опросах
Вы не можете прикреплять файлы к сообщениям
Вы не можете скачивать файлы