Ной / Noah (Даррен Аронофски / Darren Aronofsky) [2014 г, США, драма, приключения, фэнтези, BDRip] Dub + Original + Sub (Rus, Eng)

 
Автор Сообщение

sergej644 ®

Пол:

Стаж: 4 года 11 месяцев

Сообщений: 6041

Откуда: Soviet Union



Награды: Нет

Торрент-статистика

Создавать темы 30-Июл-2014 21:11

[Цитировать]

Ной / Noah
«Конец — это только начало»
- Страна: США / Disruption Entertainment, Paramount Pictures, Protozoa Pictures, Regency Enterprises
Жанр: Драма, Приключения, Фэнтези
Год выпуска: 2014
Продолжительность: 02:17:53
Перевод:
Профессиональный (полное дублирование) [Лицензия «BD CEE»]
Оригинальная звуковая дорожка: [Английская]
Cубтитры: Русские (полные, форсированные), Английские (полные, форсированные, SDH + SDH-Colored), (внешние srt*)--Режиссер: Даррен Аронофски / Darren Aronofsky
Продюсер: Даррен Аронофски, Скотт Франклин, Арнон Милчэн--В ролях: Рассел Кроу (Noah), Дженнифер Коннелли (Naameh), Рэй Уинстон (Tubal-cain), Энтони Хопкинс (Methuselah), Эмма Уотсон (Ila), Логан Лерман (Ham), Дуглас Бут (Shem), Ник Нолти (Samyaza), Марк Марголис (Magog), Кевин Дюран (Rameel), Лео МакХью Кэрролл (Japheth), Мартон Чокаш (Lamech)--О фильме: История отца, воина и спасителя Человечества и всего живого на Земле.--КиноПоиск~ 7.171 (44 787 )
IMDB ~ 6.20 (88 477)
--Автор рипа : --Качество видео: BDRip [Источник: 1080p BD-Remux / HDclub]
Формат видео: AVI
Видео: 720x384 (1.88:1), 23.976 fps, XviD build 73 ~1875 kbps avg, 0.28 bit/pixel
Аудиокодек: Dolby AC3 5.1
Аудио : 48 kHz/16-bit, AC3 Dolby Digital, 3/2 (L,C,R,l,r) + LFE ch, ~384kbps | Dub
Аудио : 48 kHz/16-bit, AC3 Dolby Digital, 3/2 (L,C,R,l,r) + LFE ch, ~384 kbps | Original | Отдельно
Размер: 2.18 GB (1/2 DVD-R)
Скачать: Семпл
-

Кадры из фильма

MediaInfo

Полное имя :[2014]_NOY_2014_BDRip.avi
Формат : AVI
Формат/Информация : Audio Video Interleave
Профиль формата : OpenDML
Размер файла : 2,18 Гбайт
Продолжительность : 2 ч. 17 м.
Общий поток : 2267 Кбит/сек
Название фильма : Ной / Noah (2014) BDRip
Режиссёр : Rensler
Жанр : Драма / Приключения / Фентези
Программа кодирования : VirtualDubModRus 1.5.10.2 (build 2542/release)
Библиотека кодирования : VirtualDubMod build 2542/release
Примечание : 15.07.2014
Видео
Идентификатор : 0
Формат : MPEG-4 Visual
Профиль формата : Advanced Simple@L5
Параметр BVOP формата : 2
Параметр QPel формата : Нет
Параметр GMC формата : Без точки перехода
Параметр матрицы формата : Выборочная
Идентификатор кодека : XVID
Идентификатор кодека/Подсказка : XviD
Продолжительность : 2 ч. 17 м.
Битрейт : 1875 Кбит/сек
Ширина : 720 пикселей
Высота : 384 пикселя
Соотношение сторон : 1,875
Частота кадров : 23,976 кадра/сек
Цветовое пространство : YUV
Субдискретизация насыщенности : 4:2:0
Битовая глубина : 8 бит
Тип развёртки : Прогрессивная
Метод сжатия : С потерями
Бит/(Пиксели*Кадры) : 0.282
Размер потока : 1,80 Гбайт (83%)
Библиотека кодирования : XviD 73
Аудио
Идентификатор : 1
Формат : AC-3
Формат/Информация : Audio Coding 3
Расширение режима : CM (complete main)
Идентификатор кодека : 2000
Продолжительность : 2 ч. 17 м.
Вид битрейта : Постоянный
Битрейт : 384 Кбит/сек
Каналы : 6 каналов
Расположение каналов : Front: L C R, Side: L R, LFE
Частота : 48,0 КГц
Битовая глубина : 16 бит
Метод сжатия : С потерями
Размер потока : 379 Мбайт (17%)
Выравнивание : Разделение по промежуткам
Продолжительность промежутка : 42 мс. (1,00 видеокадр)
Время предзагрузки промежутка : 500 мс.
Заголовок : Russian
Спасибо - за благодарность!
[Профиль] [ЛС]
Кто просматривает тему:

Форум Тема Автор Размер
Фильмы (HD Rips | 720p, 1080p) Ной / Noah (2014) BDRip 1080p от ExKinoRay | D, A | Лицензия sergej644 16.09 GB
Фильмы (HD Rips | 720p, 1080p) Ной / Noah (2014) BDRip 720p sergej644 11.89 GB
Фильмы (HD Rips | 720p, 1080p) Ной / Noah (2014) BDRip 720p | iTunes sergej644 6.04 GB
Фильмы 2014 года Ной / Noah (Даррен Аронофски / Darren Aronofsky) [2014 г., США, драма, приключения, фэнтези, BDRip-AVC] Dub (CEE) + Original Eng + Sub (Rus, Ukr, Eng) reversefile 2.92 GB
Фильмы 2014 года Ной / Noah (Даррен Аронофски / Darren Aronofsky) [2014 г., США, драма, приключения, фэнтези, BDRip-AVC] Dub + Original (Eng) + Sub (rus, eng) reversefile 2.18 GB
Фильмы 2014 года Ной / Noah (Даррен Аронофски / Darren Aronofsky) [2014 г., США, драма, приключения, фэнтези, BDRip-AVC] Dub + Sub (rus, eng) reversefile 748 MB
Фильмы 2014 года Ной / Noah (Даррен Аронофски / Darren Aronofsky) [2014 г., США, драма, приключения, фэнтези, HDRip] Dub (Line) bot 2.05 GB
Фильмы 2014 года Ной / Noah (Даррен Аронофски / Darren Aronofsky) [2014 г., США, драма, приключения, фэнтези, HDRip] Dub (Line) + Original (Eng) bot 2.74 GB
Показать сообщения:    

Текущее время: Сегодня 16:56

Часовой пояс: GMT



Вы не можете начинать темы
Вы не можете отвечать на сообщения
Вы не можете редактировать свои сообщения
Вы не можете удалять свои сообщения
Вы не можете голосовать в опросах
Вы не можете прикреплять файлы к сообщениям
Вы не можете скачивать файлы