Ной / Noah (Даррен Аронофски / Darren Aronofsky) [2014, США, драма, приключения, фэнтези, BDRip] Dub [iTunes]

 
Автор Сообщение

reversefile ®

Пол:

Стаж: 4 года 5 месяцев

Сообщений: 842

Откуда: ReverseFile.org



Награды: Нет

Торрент-статистика

Создавать темы 25-Июл-2014 01:16

[Цитировать]

НойNoah«Конец — это только начало»- Страна: США
Жанр: драма, приключения, фэнтези
Год выпуска: 2014
Продолжительность: 02:17:54-Перевод: Профессиональный (полное дублирование) [iTunes]
Субтитры: нет
Режиссер: Даррен Аронофски / Darren Aronofsky
В ролях: Рассел Кроу (Noah), Дженнифер Коннелли (Naameh), Рэй Уинстон (Tubal-cain), Энтони Хопкинс (Methuselah), Эмма Уотсон (Ila), Логан Лерман (Ham), Дуглас Бут (Shem), Ник Нолти (Samyaza, озвучка), Марк Марголис (Magog, озвучка), Кевин Дюран (Rameel), Лео МакХью Кэрролл (Japheth), Мартон Чокаш (Lamech)
Дублёры: Денис Беспалый (Noah), Рамиля Искандер (Naameh), Владимир Еремин (Tubal-cain), Рудольф Панков (Methuselah), Наталья Терешкова (Ila), Дмитрий Череватенко (Ham), Станислав Тикунов (Shem), Игорь Старосельцев (Samyaza), Лев Аксельрод (Japheth), Всеволод Кузнецов (Lamech), Вадим Медведев (Young Tubal-cain), Татьяна Ермилова (Na'el)-Описание: История отца, воина и спасителя Человечества и всего живого на Земле.-
MPAA: PG-13 - Детям до 13 лет просмотр не желателен-Качество: BDRip | BDRemux 1080p HDCLUB | sample
Контейнер: AVI
Видео: XviD, 720x384 (1.875), 1310 kbps, 23,976 fps, 0,198 bpp
Аудио: AC3 / 2.0 / 48 kHz / 192 kbps / 16 bit-

Скриншоты

Media Info

General
Complete name : E:\my_rip\Noah.2014.BDRip.Dub.by.Дядя_Лёша.avi
Format : AVI
Format/Info : Audio Video Interleave
File size : 1.46 GiB
Duration : 2h 17mn
Overall bit rate : 1 512 Kbps
Writing application : VirtualDubMod 1.5.10.3 | www.virtualdub-fr.org || (build 2550/release)
Writing library : VirtualDubMod build 2550/release
Video
ID : 0
Format : MPEG-4 Visual
Format profile : Advanced Simple@L5
Format settings, BVOP : 1
Format settings, QPel : No
Format settings, GMC : No warppoints
Format settings, Matrix : Custom
Codec ID : XVID
Codec ID/Hint : XviD
Duration : 2h 17mn
Bit rate : 1 311 Kbps
Width : 720 pixels
Height : 384 pixels
Display aspect ratio : 1.875
Frame rate : 23.976 fps
Color space : YUV
Chroma subsampling : 4:2:0
Bit depth : 8 bits
Scan type : Progressive
Compression mode : Lossy
Bits/(Pixel*Frame) : 0.198
Stream size : 1.26 GiB (87%)
Writing library : XviD 73
Audio
ID : 1
Format : AC-3
Format/Info : Audio Coding 3
Mode extension : CM (complete main)
Codec ID : 2000
Duration : 2h 17mn
Bit rate mode : Constant
Bit rate : 192 Kbps
Channel(s) : 2 channels
Channel positions : Front: L R
Sampling rate : 48.0 KHz
Bit depth : 16 bits
Compression mode : Lossy
Stream size : 189 MiB (13%)
Alignment : Split accross interleaves
Interleave, duration : 42 ms (1.00 video frame)
Interleave, preload duration : 500 ms
[Профиль] [ЛС]
Кто просматривает тему:

Форум Тема Автор Размер
Фильмы (HD Rips | 720p, 1080p) Ной / Noah (2014) BDRip 1080p от ExKinoRay | D, A | Лицензия sergej644 16.09 GB
Фильмы (HD Rips | 720p, 1080p) Ной / Noah (2014) BDRip 720p sergej644 11.89 GB
Фильмы (HD Rips | 720p, 1080p) Ной / Noah (2014) BDRip 720p | iTunes sergej644 6.04 GB
Фильмы 2014 года Ной / Noah (Даррен Аронофски / Darren Aronofsky) [2014 г, США, драма, приключения, фэнтези, BDRip] Dub + Original + Sub (Rus, Eng) sergej644 2.55 GB
Фильмы 2014 года Ной / Noah (Даррен Аронофски / Darren Aronofsky) [2014 г., США, драма, приключения, фэнтези, BDRip-AVC] Dub (CEE) + Original Eng + Sub (Rus, Ukr, Eng) reversefile 2.92 GB
Фильмы 2014 года Ной / Noah (Даррен Аронофски / Darren Aronofsky) [2014 г., США, драма, приключения, фэнтези, BDRip-AVC] Dub + Original (Eng) + Sub (rus, eng) reversefile 2.18 GB
Фильмы 2014 года Ной / Noah (Даррен Аронофски / Darren Aronofsky) [2014 г., США, драма, приключения, фэнтези, BDRip-AVC] Dub + Sub (rus, eng) reversefile 748 MB
Фильмы 2014 года Ной / Noah (Даррен Аронофски / Darren Aronofsky) [2014 г., США, драма, приключения, фэнтези, HDRip] Dub (Line) bot 2.05 GB
Показать сообщения:    

Текущее время: Сегодня 03:13

Часовой пояс: GMT



Вы не можете начинать темы
Вы не можете отвечать на сообщения
Вы не можете редактировать свои сообщения
Вы не можете удалять свои сообщения
Вы не можете голосовать в опросах
Вы не можете прикреплять файлы к сообщениям
Вы не можете скачивать файлы