Ной / Noah (Даррен Аронофски / Darren Aronofsky) [2014, США, драма, приключения, фэнтези, BDRip 720p] Dub (LINE) + VO (Есарев) + Original eng + Sub rus, eng

 
Автор Сообщение

Создавать темы 20-Июл-2014 09:42

Ной / Noah

Страна: США
Жанр: драма, приключения, фэнтези
Год выпуска: 2014
Продолжительность: 02:17:53
Перевод#1: Профессиональный (дублированный) | LINE
Перевод#2: Одноголосый закадровый, Д. Есарев
Cубтитры: русские (notabenoid), английские
Оригинальная аудиодорожка: английский
Режиссер: Даррен Аронофски / Darren Aronofsky
В ролях: Расселл Кроу, Дженнифер Коннелли, Рэй Уинстон, Энтони Хопкинс, Эмма Уотсон, Логан Лерман, Дуглас Бут, Ник Нолти, Марк Марголис, Кевин Дюран, Лео МакХью Кэрролл, Мартон Чокаш
Описание: История отца, воина и спасителя Человечества и всего живого на Земле

Тип релиза: BDRip 720p (от LolHD) | sample
Контейнер: MKV
Видео кодек: x264
Видео: AVC 1280x694 (1.85:1), 23.976 fps, 9739 Kbps, 0.47 bit/pixel
Аудио #1: Russian AC3 2ch 48kHz 384Kbps | Dub LINE*
Аудио #2: Russian DTS 6ch 48kHz 1510Kbps | VO Есарев
Аудио #3: English DTS 6ch 48kHz 1510Kbps | Original
* Дубляж с iTunes , спасибо ZIP_sq, сабы - здесь
Формат субтитров: softsub (SRT)
Главы: есть

x264

x264 [info]: frame I:1423 Avg QP:14.78 size:171870
x264 [info]: frame P:42707 Avg QP:15.21 size: 81786
x264 [info]: frame B:154226 Avg QP:16.52 size: 42841
x264 [info]: consecutive B-frames: 2.7% 3.0% 9.7% 10.8% 14.5% 44.2% 6.8% 2.0% 1.9% 2.4% 1.9%
x264 [info]: SSIM Mean Y:0.9817145 (17.379db)!encoded 198356 frames, 3.25 fps, 10003.11 kb/s

MediaInfo

General
Complete name : E:\...\Noah.2014.720p.BluRay.x264.2xRus.LINE.VO.Eng-LolHD.mkv
Format : Matroska
Format version : Version 2
File size : 12.9 GiB
Duration : 2h 17mn
Overall bit rate : 13.4 Mbps
Movie name : Noah.2014.720p.BluRay.x264.2xRus.LINE.VO.Eng-LolHD
Encoded date : UTC 2014-07-14 18:37:15
Writing application : mkvmerge v7.0.0 ('Where We Going') 64bit built on Jun 9 2014 15:16:27
Writing library : libebml v1.3.0 + libmatroska v1.4.1
Attachment : Yes
Video
ID : 1
Format : AVC
Format/Info : Advanced Video Codec
Format profile : High@L4.1
Format settings, CABAC : Yes
Format settings, ReFrames : 9 frames
Codec ID : V_MPEG4/ISO/AVC
Bit rate : 9 739 Kbps
Width : 1 280 pixels
Height : 694 pixels
Display aspect ratio : 1.85:1
Frame rate mode : Variable
Original frame rate : 23.976 fps
Color space : YUV
Chroma subsampling : 4:2:0
Bit depth : 8 bits
Scan type : Progressive
Title : Noah (214)
Writing library : x264 core 142 r2431kMod ac76440
Encoding settings : cabac=1 / ref=9 / deblock=1:-3:-3 / analyse=0x3:0x133 / me=umh / subme=10 / psy=1 / fade_compensate=0.00 / psy_rd=1.05:0.00 / mixed_ref=1 / me_range=24 / chroma_me=1 / trellis=2 / 8x8dct=1 / cqm=0 / deadzone=21,11 / fast_pskip=0 / chroma_qp_offset=-2 / threads=24 / lookahead_threads=5 / sliced_threads=0 / nr=0 / decimate=0 / interlaced=0 / bluray_compat=0 / constrained_intra=0 / fgo=0 / bframes=10 / b_pyramid=2 / b_adapt=2 / b_bias=0 / direct=3 / weightb=1 / open_gop=0 / weightp=2 / keyint=250 / keyint_min=23 / scenecut=40 / intra_refresh=0 / rc=crf / mbtree=0 / crf=16.0000 / qcomp=0.62 / qpmin=0 / qpmax=69 / qpstep=4 / ip_ratio=1.20 / pb_ratio=1.20 / aq=3:0.67
Language : English
Default : Yes
Forced : No
Audio #1
ID : 2
Format : AC-3
Format/Info : Audio Coding 3
Mode extension : CM (complete main)
Format settings, Endianness : Big
Codec ID : A_AC3
Duration : 2h 17mn
Bit rate mode : Constant
Bit rate : 384 Kbps
Channel(s) : 2 channels
Channel positions : Front: L R
Sampling rate : 48.0 KHz
Bit depth : 16 bits
Compression mode : Lossy
Stream size : 379 MiB (3%)
Title : Dub LINE
Language : Russian
Default : Yes
Forced : No
Audio #2
ID : 3
Format : DTS
Format/Info : Digital Theater Systems
Codec ID : A_DTS
Duration : 2h 17mn
Bit rate mode : Constant
Bit rate : 1 510 Kbps
Channel(s) : 6 channels
Channel positions : Front: L C R, Side: L R, LFE
Sampling rate : 48.0 KHz
Bit depth : 24 bits
Compression mode : Lossy
Stream size : 1.45 GiB (11%)
Title : VO Esarev
Language : Russian
Default : No
Forced : No
Audio #3
ID : 4
Format : DTS
Format/Info : Digital Theater Systems
Codec ID : A_DTS
Duration : 2h 17mn
Bit rate mode : Constant
Bit rate : 1 510 Kbps
Channel(s) : 6 channels
Channel positions : Front: L C R, Side: L R, LFE
Sampling rate : 48.0 KHz
Bit depth : 24 bits
Compression mode : Lossy
Stream size : 1.45 GiB (11%)
Title : Original
Language : English
Default : No
Forced : No
Text #1
ID : 5
Format : UTF-8
Codec ID : S_TEXT/UTF8
Codec ID/Info : UTF-8 Plain Text
Title : notabenoid
Language : Russian
Default : No
Forced : No
Text #2
ID : 6
Format : UTF-8
Codec ID : S_TEXT/UTF8
Codec ID/Info : UTF-8 Plain Text
Language : English
Default : No
Forced : No
Text #3
ID : 7
Format : UTF-8
Codec ID : S_TEXT/UTF8
Codec ID/Info : UTF-8 Plain Text
Title : SDH
Language : English
Default : No
Forced : No
Text #4
ID : 8
Format : UTF-8
Codec ID : S_TEXT/UTF8
Codec ID/Info : UTF-8 Plain Text
Title : SDH Colored
Language : English
Default : No
Forced : No
Menu
00:00:00.000 : en:00:00:00.000
00:04:48.955 : en:00:04:48.955
00:08:37.267 : en:00:08:37.267
00:12:23.034 : en:00:12:23.034
00:18:43.080 : en:00:18:43.080
00:23:25.487 : en:00:23:25.487
00:32:06.424 : en:00:32:06.424
00:37:27.203 : en:00:37:27.203
00:42:50.735 : en:00:42:50.735
00:54:35.647 : en:00:54:35.647
01:01:14.963 : en:01:01:14.963
01:03:28.596 : en:01:03:28.596
01:09:33.795 : en:01:09:33.795
01:19:18.337 : en:01:19:18.337
01:21:56.537 : en:01:21:56.537
01:29:12.347 : en:01:29:12.347
01:34:02.053 : en:01:34:02.053
01:40:27.355 : en:01:40:27.355
01:49:23.098 : en:01:49:23.098
01:55:57.826 : en:01:55:57.826
02:00:37.230 : en:02:00:37.230
02:11:32.676 : en:02:11:32.676

Скриншоты

source vs LolHD


 
Кто просматривает тему:

Форум Тема Автор Размер
Фильмы (HD Rips | 720p, 1080p) Ной / Noah (2014) BDRip 1080p от ExKinoRay | D, A | Лицензия sergej644 16.09 GB
Фильмы (HD Rips | 720p, 1080p) Ной / Noah (2014) BDRip 720p sergej644 11.89 GB
Фильмы (HD Rips | 720p, 1080p) Ной / Noah (2014) BDRip 720p | iTunes sergej644 6.04 GB
Фильмы 2014 года Ной / Noah (Даррен Аронофски / Darren Aronofsky) [2014 г, США, драма, приключения, фэнтези, BDRip] Dub + Original + Sub (Rus, Eng) sergej644 2.55 GB
Фильмы 2014 года Ной / Noah (Даррен Аронофски / Darren Aronofsky) [2014 г., США, драма, приключения, фэнтези, BDRip-AVC] Dub (CEE) + Original Eng + Sub (Rus, Ukr, Eng) reversefile 2.92 GB
Фильмы 2014 года Ной / Noah (Даррен Аронофски / Darren Aronofsky) [2014 г., США, драма, приключения, фэнтези, BDRip-AVC] Dub + Original (Eng) + Sub (rus, eng) reversefile 2.18 GB
Фильмы 2014 года Ной / Noah (Даррен Аронофски / Darren Aronofsky) [2014 г., США, драма, приключения, фэнтези, BDRip-AVC] Dub + Sub (rus, eng) reversefile 748 MB
Фильмы 2014 года Ной / Noah (Даррен Аронофски / Darren Aronofsky) [2014 г., США, драма, приключения, фэнтези, HDRip] Dub (Line) bot 2.05 GB
Показать сообщения:    

Текущее время: Сегодня 21:35

Часовой пояс: GMT



Вы не можете начинать темы
Вы не можете отвечать на сообщения
Вы не можете редактировать свои сообщения
Вы не можете удалять свои сообщения
Вы не можете голосовать в опросах
Вы не можете прикреплять файлы к сообщениям
Вы не можете скачивать файлы