Ной / Noah (Даррен Аронофски / Darren Aronofsky) [2014, США, Драма, приключения, фэнтези, BDRip] Dub (Line) + Original (Eng) + Subs (Rus, Eng)

 
Автор Сообщение

Создавать темы 13-Июл-2014 16:35

Ной / Noah
«Конец — это только начало»
- Год выпуска: 2014
Выпущено: США / Paramount Pictures
Жанр: драма, приключения, фэнтези
Продолжительность: 02:17:53
Перевод: Профессиональный (полное дублирование) (Line) + Оригинальная дорожка
Cубтитры: Русские (NotaBenoid), Английские (внешние .srt*)-Режиссер:
Даррен Аронофски / Darren Aronofsky-В ролях:
Рассел Кроу (Noah), Дженнифер Коннелли (Naameh), Рэй Уинстон (Tubal-cain), Энтони Хопкинс (Methuselah), Эмма Уотсон (Ila), Логан Лерман (Ham), Дуглас Бут (Shem), Ник Нолти (Samyaza), Марк Марголис (Magog), Кевин Дюран (Rameel), Лео МакХью Кэрролл (Japheth), Мартон Чокаш (Lamech)-Описание:
История отца, воина и спасителя Человечества и всего живого на Земле.-Релиз группы | IMDB | КиноПоиск | Сэмпл |-Качество: BDRip [BDRemux]
Формат: AVI
Видео: 704x384 (1.83:1), 23.976 fps, XviD build 73 ~1324 kbps avg, 0.20 bit/pixel
Аудио #1: 48 kHz, AC3 Dolby Digital, 2/0 (L,R) ch, ~192.00 kbps avg (RUS)
Аудио #2: 48 kHz, AC3 Dolby Digital, 2/0 (L,R) ch, ~192.00 kbps avg (ENG) отдельно
-

Скриншоты

MediaInfo

General
Complete name                            : D:\Noy_2014_BDRip_by_Dalemake.avi
Format                                   : AVI
Format/Info                              : Audio Video Interleave
File size                                : 1.47 GiB
Duration                                 : 2h 17mn
Overall bit rate                         : 1 526 Kbps
Writing application                      : VirtualDubMod 1.5.10.3 | www.virtualdub-fr.org || (build 2550/release)
Writing library                          : VirtualDubMod build 2550/release
Video
ID                                       : 0
Format                                   : MPEG-4 Visual
Format profile                           : Advanced Simple@L5
Format settings, BVOP                    : 1
Format settings, QPel                    : No
Format settings, GMC                     : No warppoints
Format settings, Matrix                  : Custom
Codec ID                                 : XVID
Codec ID/Hint                            : XviD
Duration                                 : 2h 17mn
Bit rate                                 : 1 325 Kbps
Width                                    : 704 pixels
Height                                   : 384 pixels
Display aspect ratio                     : 1.85:1
Frame rate                               : 23.976 fps
Color space                              : YUV
Chroma subsampling                       : 4:2:0
Bit depth                                : 8 bits
Scan type                                : Progressive
Compression mode                         : Lossy
Bits/(Pixel*Frame)                       : 0.204
Stream size                              : 1.28 GiB (87%)
Writing library                          : XviD 73
Audio
ID                                       : 1
Format                                   : AC-3
Format/Info                              : Audio Coding 3
Mode extension                           : CM (complete main)
Format settings, Endianness              : Big
Codec ID                                 : 2000
Duration                                 : 2h 17mn
Bit rate mode                            : Constant
Bit rate                                 : 192 Kbps
Channel(s)                               : 2 channels
Channel positions                        : Front: L R
Sampling rate                            : 48.0 KHz
Bit depth                                : 16 bits
Compression mode                         : Lossy
Stream size                              : 189 MiB (13%)
Alignment                                : Split accross interleaves
Interleave, duration                     : 42 ms (1.00 video frame)
Interleave, preload duration             : 500 ms
-
 
Кто просматривает тему:

Форум Тема Автор Размер
Фильмы (HD Rips | 720p, 1080p) Ной / Noah (2014) BDRip 1080p от ExKinoRay | D, A | Лицензия sergej644 16.09 GB
Фильмы (HD Rips | 720p, 1080p) Ной / Noah (2014) BDRip 720p sergej644 11.89 GB
Фильмы (HD Rips | 720p, 1080p) Ной / Noah (2014) BDRip 720p | iTunes sergej644 6.04 GB
Фильмы 2014 года Ной / Noah (Даррен Аронофски / Darren Aronofsky) [2014 г, США, драма, приключения, фэнтези, BDRip] Dub + Original + Sub (Rus, Eng) sergej644 2.55 GB
Фильмы 2014 года Ной / Noah (Даррен Аронофски / Darren Aronofsky) [2014 г., США, драма, приключения, фэнтези, BDRip-AVC] Dub (CEE) + Original Eng + Sub (Rus, Ukr, Eng) reversefile 2.92 GB
Фильмы 2014 года Ной / Noah (Даррен Аронофски / Darren Aronofsky) [2014 г., США, драма, приключения, фэнтези, BDRip-AVC] Dub + Original (Eng) + Sub (rus, eng) reversefile 2.18 GB
Фильмы 2014 года Ной / Noah (Даррен Аронофски / Darren Aronofsky) [2014 г., США, драма, приключения, фэнтези, BDRip-AVC] Dub + Sub (rus, eng) reversefile 748 MB
Фильмы 2014 года Ной / Noah (Даррен Аронофски / Darren Aronofsky) [2014 г., США, драма, приключения, фэнтези, HDRip] Dub (Line) bot 2.05 GB
Показать сообщения:    

Текущее время: Сегодня 01:24

Часовой пояс: GMT



Вы не можете начинать темы
Вы не можете отвечать на сообщения
Вы не можете редактировать свои сообщения
Вы не можете удалять свои сообщения
Вы не можете голосовать в опросах
Вы не можете прикреплять файлы к сообщениям
Вы не можете скачивать файлы