Ной в 3Д / Noah 3D (Даррен Аронофски / Darren Aronofsky) [2014, США, драма, приключения, фэнтези, BDRip-AVC] (Half SideBySide / Горизонтальная анаморфная стереопара) Dub + Original (Eng) + Sub (Rus, Eng)

 
Автор Сообщение

TorrentFilm ®

Пол:

Стаж: 2 года

Сообщений: 7741



Награды: Нет

Торрент-статистика

Создавать темы 02-Янв-2016 00:12

[Цитировать]

Ной / Noah
Страна: США
Производство: Paramount Pictures, Disruption Entertainment, New Regency Pictures, Protozoa Pictures
Жанр: драма, приключения, фэнтези
Год выпуска: 2014
Продолжительность: 02:17:53
Перевод: Профессиональный (дублированный) Blu-ray CEE
Оригинальная аудиодорожка: английская
Cубтитры: русские (forced, full), английские (full, SDH, SDH-colored)
Режиссер: Даррен Аронофски / Darren Aronofsky
В ролях: Расселл Кроу, Эмма Уотсон, Дженнифер Коннелли, Логан Лерман, Дуглас Бут, Энтони Хопкинс, Рэй Уинстон, Кевин Дюран, Дакота Гойо, Ник Нолт, Сами Гейл, Бэрри Слоун, Мартон Чокаш, Марк Марголис, Фрэнк Лангелла, Мэдисон Девенпорт, Финн Уиттрок, Дон Харви, Софи Нювейде, Рэймонд Мэмрак
Описание: Пересказ библейской истории о Ноевом Ковчеге. В мире, развращенном человеческим грехом, Ною предначертана божественная миссия: построить Ковчег и спасти все живое.

Релиз: fanatus
Качество видео: BDRip
Исходник: Noah (2014) 1080p [2D/3D] BD-Remux
Контейнер: MKV
Формат 3D: Half SideBySide / Горизонтальная анаморфная стереопара
Порядок ракурсов: левый ракурс первый
Видео кодек: x264
Аудио кодек: AC3, DTS
Видео: MPEG-4 AVC, 14.5 Mbps , 1920x1080 (16:9), 23.976 fps, 0.292 bit/pixel
Аудио 1: русский (AC3, 6 ch, 48 kHz, 640 kbps)
Аудио 4: английский (DTS, 6 ch, 48 kHz, 1510 kbps)
Формат субтитров: softsub (SRT)
Главы: есть

MediaInfo

General
Unique ID : 222068471273678384788869486896041626448 (0xA710D4F451EBB755B5656A56653B0B50)
Complete name : E:\Noah.2014.3D-HalfSBS.x264.BDRip.1080p.fanatus.mkv
Format : Matroska
Format version : Version 2
File size : 16.0 GiB
Duration : 2h 17mn
Overall bit rate : 16.6 Mbps
Movie name : Noah (2014) - fanatus
Encoded date : UTC 2014-08-10 10:26:14
Writing application : mkvmerge v3.4.0 ('Rapunzel') сборка от May 15 2010 09:38:20
Writing library : libebml v0.8.0 + libmatroska v0.9.0
Attachment : Yes
Video
ID : 1
Format : AVC
Format/Info : Advanced Video Codec
Format profile : High@L4.1
MultiView_Count : 2
Format settings, CABAC : Yes
Format settings, ReFrames : 4 frames
Codec ID : V_MPEG4/ISO/AVC
Duration : 2h 17mn
Bit rate : 14.5 Mbps
Width : 1 920 pixels
Height : 1 080 pixels
Display aspect ratio : 16:9
Frame rate : 23.976 fps
Color space : YUV
Chroma subsampling : 4:2:0
Bit depth : 8 bits
Scan type : Progressive
Bits/(Pixel*Frame) : 0.292
Stream size : 13.6 GiB (85%)
Title : 3D-HalfSBS BDRip(1080p)
Writing library : x264 core 142 r2431+42 c69a006 tMod [8-bit@all X86]
Encoding settings : cabac=1 / ref=4 / deblock=1:-3:-3 / analyse=0x3:0x113 / me=umh / subme=11 / psy=1 / fade_compensate=0.00 / psy_rd=1.00:0.20 / mixed_ref=1 / me_range=64 / chroma_me=1 / trellis=2 / 8x8dct=1 / cqm=0 / deadzone=21,11 / fast_pskip=0 / chroma_qp_offset=-3 / threads=16 / lookahead_threads=2 / sliced_threads=0 / nr=0 / decimate=0 / interlaced=0 / bluray_compat=0 / constrained_intra=0 / fgo=0 / bframes=9 / b_pyramid=2 / b_adapt=2 / b_bias=0 / direct=3 / weightb=1 / open_gop=0 / weightp=2 / keyint=240 / keyint_min=23 / scenecut=40 / intra_refresh=0 / rc_lookahead=240 / rc=2pass / mbtree=0 / bitrate=14500 / ratetol=1.0 / qcomp=0.70 / qpmin=0:0:0 / qpmax=69:69:69 / qpstep=4 / cplxblur=20.0 / qblur=0.5 / vbv_maxrate=50000 / vbv_bufsize=62500 / nal_hrd=none / filler=0 / frame-packing=3 / ip_ratio=1.30 / pb_ratio=1.20 / aq=4:0.60 / aq-sensitivity=10.00 / aq-factor=1.00:1.00:1.00 / aq2=0 / aq3=0
Language : English
Default : Yes
Forced : No
Audio #1
ID : 2
Format : AC-3
Format/Info : Audio Coding 3
Mode extension : CM (complete main)
Format settings, Endianness : Big
Codec ID : A_AC3
Duration : 2h 17mn
Bit rate mode : Constant
Bit rate : 640 Kbps
Channel(s) : 6 channels
Channel positions : Front: L C R, Side: L R, LFE
Sampling rate : 48.0 KHz
Bit depth : 16 bits
Compression mode : Lossy
Stream size : 631 MiB (4%)
Title : Dub (Blu-ray CEE)
Language : Russian
Default : Yes
Forced : No
Audio #2
ID : 3
Format : DTS
Format/Info : Digital Theater Systems
Codec ID : A_DTS
Duration : 2h 17mn
Bit rate mode : Constant
Bit rate : 1 510 Kbps
Channel(s) : 6 channels
Channel positions : Front: L C R, Side: L R, LFE
Sampling rate : 48.0 KHz
Bit depth : 24 bits
Compression mode : Lossy
Stream size : 1.45 GiB (9%)
Title : Original
Language : English
Default : No
Forced : No
Text #1
ID : 4
Format : UTF-8
Codec ID : S_TEXT/UTF8
Codec ID/Info : UTF-8 Plain Text
Title : Forced (iTunes)
Language : Russian
Default : Yes
Forced : Yes
Text #2
ID : 5
Format : UTF-8
Codec ID : S_TEXT/UTF8
Codec ID/Info : UTF-8 Plain Text
Title : Full (iTunes)
Language : Russian
Default : No
Forced : No
Text #3
ID : 6
Format : UTF-8
Codec ID : S_TEXT/UTF8
Codec ID/Info : UTF-8 Plain Text
Title : notabenoid
Language : Russian
Default : No
Forced : No
Text #4
ID : 7
Format : UTF-8
Codec ID : S_TEXT/UTF8
Codec ID/Info : UTF-8 Plain Text
Title : Full
Language : English
Default : No
Forced : No
Text #5
ID : 8
Format : UTF-8
Codec ID : S_TEXT/UTF8
Codec ID/Info : UTF-8 Plain Text
Title : SDH
Language : English
Default : No
Forced : No
Text #6
ID : 9
Format : UTF-8
Codec ID : S_TEXT/UTF8
Codec ID/Info : UTF-8 Plain Text
Title : SDH-colored
Language : English
Default : No
Forced : No
Menu
00:00:00.000 : en:00:00:00.000
00:04:48.955 : en:00:04:48.955
00:08:37.267 : en:00:08:37.267
00:12:23.034 : en:00:12:23.034
00:18:43.080 : en:00:18:43.080
00:23:25.487 : en:00:23:25.487
00:32:06.424 : en:00:32:06.424
00:37:27.203 : en:00:37:27.203
00:42:50.735 : en:00:42:50.735
00:54:35.647 : en:00:54:35.647
01:01:14.963 : en:01:01:14.963
01:03:28.596 : en:01:03:28.596
01:09:33.795 : en:01:09:33.795
01:19:18.337 : en:01:19:18.337
01:21:56.537 : en:01:21:56.537
01:29:12.347 : en:01:29:12.347
01:34:02.053 : en:01:34:02.053
01:40:27.355 : en:01:40:27.355
01:49:23.098 : en:01:49:23.098
01:55:57.826 : en:01:55:57.826
02:00:37.230 : en:02:00:37.230
02:11:32.676 : en:02:11:32.676

x264 [info]

x264 [info]: 1920x1080p 1:1 @ 24000/1001 fps (cfr)
x264 [info]: color matrix: undef
x264 [info]: using SAR=1/1
x264 [info]: using cpu capabilities: MMX2 SSE2Fast LZCNT
x264 [info]: profile High, level 4.1
x264 [info]: started at Sat Aug 09 20:24:53 2014
x264 [info]: frame I:1525 Avg QP:15.87 size:271150
x264 [info]: frame P:45525 Avg QP:17.58 size:123246
x264 [info]: frame B:151305 Avg QP:18.76 size: 59182
x264 [info]: consecutive B-frames: 4.2% 3.3% 7.5% 14.2% 17.4% 39.7% 7.1% 1.7% 2.8% 2.2%
x264 [info]: mb I I16..4: 13.5% 67.7% 18.7%
x264 [info]: mb P I16..4: 4.3% 25.8% 3.6% P16..4: 23.5% 24.5% 8.9% 0.0% 0.0% skip: 9.4%
x264 [info]: mb B I16..4: 0.8% 5.8% 0.5% B16..8: 30.9% 20.2% 3.3% direct:10.7% skip:27.8% L0:38.3% L1:37.4% BI:24.3%
x264 [info]: 8x8 transform intra:77.7% inter:43.4%
x264 [info]: direct mvs spatial:97.3% temporal:2.7%
x264 [info]: coded y,uvDC,uvAC intra: 87.8% 69.5% 34.6% inter: 36.7% 25.6% 6.0%
x264 [info]: i16 v,h,dc,p: 15% 9% 19% 57%
x264 [info]: i8 v,h,dc,ddl,ddr,vr,hd,vl,hu: 21% 6% 18% 7% 8% 13% 7% 12% 9%
x264 [info]: i4 v,h,dc,ddl,ddr,vr,hd,vl,hu: 21% 8% 13% 7% 11% 15% 7% 11% 7%
x264 [info]: i8c dc,h,v,p: 30% 33% 26% 11%
x264 [info]: Weighted P-Frames: Y:6.5% UV:4.6%
x264 [info]: ref P L0: 51.5% 8.2% 27.4% 11.0% 1.8% 0.1%
x264 [info]: ref B L0: 86.0% 11.6% 2.4%
x264 [info]: ref B L1: 92.4% 7.6%
x264 [info]: kb/s:14484.41
x264 [info]: encoded 198355 frames, 3.243 fps, 14484.41 kb/s, 14285 MB
x264 [info]: ended at Sun Aug 10 13:24:25 2014
x264 [info]: encoding duration 16:59:32

Скриншот c названием фильма

[Профиль] [ЛС]
Показать сообщения:    

Текущее время: Сегодня 09:58

Часовой пояс: GMT



Вы не можете начинать темы
Вы не можете отвечать на сообщения
Вы не можете редактировать свои сообщения
Вы не можете удалять свои сообщения
Вы не можете голосовать в опросах
Вы не можете прикреплять файлы к сообщениям
Вы не можете скачивать файлы