Новый Человек-паук: Высокое напряжение / The Amazing Spider-Man 2: Rise of Electro (2014) BDRemux [1080p]

 
Автор Сообщение

sergej644 ®

Пол:

Стаж: 4 года 11 месяцев

Сообщений: 6035

Откуда: Soviet Union



Награды: Нет

Торрент-статистика

Создавать темы 28-Окт-2014 08:45

[Цитировать]

-Новый Человек-паук: Высокое напряжение / The Amazing Spider-Man 2: Rise of Electro (2014) BDRemux- Год выпуска: 2014
Производство: США
Жанр: Фэнтези, Боевик, Приключения
Описание фильма: Питер Паркер под маской Человека-паука по-прежнему спасает мир от злодеев и преступников, а свободное время проводит со своей возлюбленной Гвен, но школьная пора близится к концу, и впереди героев ждет взрослая жизнь. Питер помнит о том, что дал отцу Гвен слово навсегда уйти из жизни девушки, тем самым больше не подвергая ее опасности. Однако сдержать это обещание не так просто. Судьба готовит Питеру сюрпризы: на его пути появится новый противник — Электро, а также ему будет суждено вновь встретиться с давним приятелем Гарри Озборном и узнать много нового о прошлом своей семьи.
Режиссер: Марк Уэбб
Актеры: Эндрю Гарфилд, Эмма Стоун, Джейми Фокс, Дэйн ДеХаан, Колм Фиор, Фелисити Джонс, Пол Джаматти, Салли Филд, Эмбет Дэвидц, Кэмпбелл Скотт
Перевод: Дублированный, Авторский
Язык субтитров: Русские (Forced, full, Commentary), Английские (Full, SDH, SDH Colored, Commentary)
Вид субтитров: Вшитые, отключаемые

Дата мировой премьеры: 10 апреля 2014
Дата российской премьеры: 24 апреля 2014
Дата выхода DVD релиза: 21 августа 2014
Дата выхода Blu-Ray релиза: 21 августа 2014
Продолжительность: 02:21:35
Качество видео: BDRemux
Видео: MPEG-4 AVC/H.264, 22893 кбит/с, 1920x1080, 23,976 fps
Аудио 1: Русский 48 kHz/16-bit, AC3, ~640 kbps |Dub, Blu-ray CEE|
Аудио 2: Украинский 48 kHz/16-bit, AC3, ~640 kbps |Dub, Blu-ray CEE|
Аудио 3: Русский 48 kHz/16-bit, DTS-HD MA, ~2250 kbps |Авторский, Гаврилов|
Аудио 4: Английский 48 kHz/16-bit, DTS-HD MA, ~2374 kbps |Original]
Аудио 5: Английский 48 kHz/16-bit, AC3, ~192 kbps |Commentary with Writers Alex Kurtzman and Jeff Pinkner and Producers Matt Tolmach and Avi Arad|

MediaInfo

Формат : Matroska
Версия формата : Version 2
Размер файла : 28,7 Гбайт
Продолжительность : 2 ч. 21 м.
Режим общего битрейта : Переменный
Общий поток : 29,0 Мбит/сек
Название фильма : The.Amazing.Spider-Man.2-Talian-
Дата кодирования : UTC 2014-10-23 19:32:08
Программа кодирования : mkvmerge v5.7.0 ('The Whirlwind') built on Jul 8 2012 20:08:51
Библиотека кодирования : libebml v1.2.3 + libmatroska v1.3.0
Видео
Идентификатор : 1
Формат : AVC
Формат/Информация : Advanced Video Codec
Профиль формата : [url=mailto:High@L4.1]High@L4.1[/url]
Параметр CABAC формата : Да
Параметр ReFrames формата : 2 кадра
Параметр GOP формата : M=1, N=10
Идентификатор кодека : V_MPEG4/ISO/AVC
Продолжительность : 2 ч. 21 м.
Вид битрейта : Переменный
Ширина : 1920 пикселей
Высота : 1080 пикселей
Соотношение сторон : 16:9
Режим частоты кадров : Постоянный
Частота кадров : 23,976 кадра/сек
Цветовое пространство : YUV
Субдискретизация насыщенности : 4:2:0
Битовая глубина : 8 бит
Тип развёртки : Прогрессивная
Заголовок : BDRemux
Язык : English
Default : Да
Forced : Нет
Аудио #1
Идентификатор : 2
Формат : AC-3
Формат/Информация : Audio Coding 3
Расширение режима : CM (complete main)
Параметр Endianness формата : Big
Идентификатор кодека : A_AC3
Продолжительность : 2 ч. 21 м.
Вид битрейта : Постоянный
Битрейт : 640 Кбит/сек
Каналы : 6 каналов
Расположение каналов : Front: L C R, Side: L R, LFE
Частота : 48,0 КГц
Битовая глубина : 16 бит
Метод сжатия : С потерями
Размер потока : 648 Мбайт (2%)
Заголовок : DUB- Blu-ray CEE
Язык : Russian
Default : Да
Forced : Нет
Аудио #2
Идентификатор : 3
Формат : AC-3
Формат/Информация : Audio Coding 3
Расширение режима : CM (complete main)
Параметр Endianness формата : Big
Идентификатор кодека : A_AC3
Продолжительность : 2 ч. 21 м.
Вид битрейта : Постоянный
Битрейт : 640 Кбит/сек
Каналы : 6 каналов
Расположение каналов : Front: L C R, Side: L R, LFE
Частота : 48,0 КГц
Битовая глубина : 16 бит
Метод сжатия : С потерями
Размер потока : 648 Мбайт (2%)
Заголовок : DUB- Blu-ray CEE
Язык : Ukrainian
Default : Нет
Forced : Нет
Аудио #3
Идентификатор : 4
Формат : DTS
Формат/Информация : Digital Theater Systems
Профиль формата : MA / Core
Режим : 16
Параметр Endianness формата : Big
Идентификатор кодека : A_DTS
Продолжительность : 2 ч. 21 м.
Вид битрейта : Переменный
Битрейт : Неизвестно / 1509 Кбит/сек
Каналы : 6 каналов
Расположение каналов : Front: L C R, Side: L R, LFE
Частота : 48,0 КГц
Битовая глубина : 16 бит
Метод сжатия : Без потерь / Lossy
Заголовок : AVO-Гаврилов
Язык : Russian
Default : Нет
Forced : Нет
Аудио #4
Идентификатор : 5
Формат : DTS
Формат/Информация : Digital Theater Systems
Профиль формата : MA / Core
Режим : 16
Параметр Endianness формата : Big
Идентификатор кодека : A_DTS
Продолжительность : 2 ч. 21 м.
Вид битрейта : Переменный
Битрейт : Неизвестно / 1509 Кбит/сек
Каналы : 6 каналов
Расположение каналов : Front: L C R, Side: L R, LFE
Частота : 48,0 КГц
Битовая глубина : 16 бит
Метод сжатия : Без потерь / Lossy
Заголовок : Original
Язык : English
Default : Нет
Forced : Нет
Аудио #5
Идентификатор : 6
Формат : AC-3
Формат/Информация : Audio Coding 3
Профиль формата : Dolby Digital
Расширение режима : CM (complete main)
Параметр Endianness формата : Big
Идентификатор кодека : A_AC3
Продолжительность : 2 ч. 21 м.
Вид битрейта : Постоянный
Битрейт : 192 Кбит/сек
Каналы : 2 канала
Расположение каналов : Front: L R
Частота : 48,0 КГц
Битовая глубина : 16 бит
Метод сжатия : С потерями
Размер потока : 194 Мбайт (1%)
Заголовок : Commentary with Writers Alex Kurtzman and Jeff Pinkner and Producers Matt Tolmach and Avi Arad
Язык : English
Default : Нет
Forced : Нет
Текст #1
Идентификатор : 7
Формат : UTF-8
Идентификатор кодека : S_TEXT/UTF8
Идентификатор кодека/Информация : UTF-8 Plain Text
Заголовок : Sub-forced
Язык : Russian
Default : Да
Forced : Нет
Текст #2
Идентификатор : 8
Формат : UTF-8
Идентификатор кодека : S_TEXT/UTF8
Идентификатор кодека/Информация : UTF-8 Plain Text
Заголовок : Sub
Язык : Russian
Default : Нет
Forced : Нет
Текст #3
Идентификатор : 9
Формат : UTF-8
Идентификатор кодека : S_TEXT/UTF8
Идентификатор кодека/Информация : UTF-8 Plain Text
Заголовок : Sub-Commentary
Язык : Russian
Default : Нет
Forced : Нет
Текст #4
Идентификатор : 10
Формат : UTF-8
Идентификатор кодека : S_TEXT/UTF8
Идентификатор кодека/Информация : UTF-8 Plain Text
Заголовок : Sub-full
Язык : English
Default : Нет
Forced : Нет
Текст #5
Идентификатор : 11
Формат : UTF-8
Идентификатор кодека : S_TEXT/UTF8
Идентификатор кодека/Информация : UTF-8 Plain Text
Заголовок : Sub-SDH
Язык : English
Default : Нет
Forced : Нет
Текст #6
Идентификатор : 12
Формат : UTF-8
Идентификатор кодека : S_TEXT/UTF8
Идентификатор кодека/Информация : UTF-8 Plain Text
Заголовок : Sub-SDH-COLORED
Язык : English
Default : Нет
Forced : Нет
Текст #7
Идентификатор : 13
Формат : UTF-8
Идентификатор кодека : S_TEXT/UTF8
Идентификатор кодека/Информация : UTF-8 Plain Text
Заголовок : Sub-Commentary
Язык : English
Default : Нет
Forced : Нет
Меню
00:00:00.000 : 00:00:00.000
00:07:05.342 : 00:07:05.342
00:14:28.201 : 00:14:28.201
00:20:13.838 : 00:20:13.838
00:29:27.099 : 00:29:27.099
00:39:02.590 : 00:39:02.590
00:50:56.804 : 00:50:56.804
00:59:52.756 : 00:59:52.756
01:08:53.129 : 01:08:53.129
01:16:19.950 : 01:16:19.950
01:25:27.706 : 01:25:27.706
01:35:23.259 : 01:35:23.259
01:41:30.334 : 01:41:30.334
01:49:18.343 : 01:49:18.343
01:57:00.639 : 01:57:00.639
02:04:44.352 : 02:04:44.352

Отсчет AVDUMP

Duration: 02:21:35 (8494.75)
Track #1: video (BDRemux)
lang: Unknown (1)
codc: V_MPEG4/ISO/AVC -> H264/AVC (22)
reso: 1920x1080 -> 16:9
fram: 23.976 fps
rate: 22893 kbps (22892.6)
dura: 02:21:35 (8494.69)
size: 22.64 GB (24308230632)
Track #2: audio (DUB- Blu-ray CEE)
lang: rus -> Russian (15)
codc: A_AC3 -> AC3 (2)
chan: 6 -> 5.1 Surround
samp: 48000 Hz
rate: 640 kbps (640.05)
dura: 02:21:35 (8494.69)
size: 648.14 MB (679623619)
Track #3: audio (DUB- Blu-ray CEE)
lang: ukr -> Unknown (1)
codc: A_AC3 -> AC3 (2)
chan: 6 -> 5.1 Surround
samp: 48000 Hz
rate: 640 kbps (640.05)
dura: 02:21:35 (8494.69)
size: 648.14 MB (679623653)
Track #4: audio (AVO-￐モ￐ᄚ￐ᄇ￑タ￐ᄌ￐ᄏ￐ᄒ￐ᄇ)
lang: rus -> Russian (15)
codc: A_DTS -> DTS (13)
chan: 6 -> 5.1 Surround
samp: 48000 Hz
rate: 2251 kbps (2250.59)
dura: 02:21:35 (8494.67)
size: 2.23 GB (2389754388)
Track #5: audio (Original)
lang: Unknown (1)
codc: A_DTS -> DTS (13)
chan: 6 -> 5.1 Surround
samp: 48000 Hz
rate: 2374 kbps (2374.38)
dura: 02:21:35 (8494.67)
size: 2.35 GB (2521191688)
Track #6: audio (Commentary with Writers Alex Kurtzman and Jeff Pinkner and Producers Matt Tolmach and Avi Arad)
lang: Unknown (1)
codc: A_AC3 -> AC3 (2)
chan: 2 -> Stereo
samp: 48000 Hz
rate: 192 kbps (192.04)
dura: 02:21:35 (8494.69)
size: 194.47 MB (203917543)
Track #7: subtitles (Sub-forced)
lang: rus -> Russian (15)
type: S_TEXT/UTF8 -> SRT (3)
size: 2.28 KB (2334)
Track #8: subtitles (Sub)
lang: rus -> Russian (15)
type: S_TEXT/UTF8 -> SRT (3)
size: 77.02 KB (78871)
Track #9: subtitles (Sub-Commentary)
lang: rus -> Russian (15)
type: S_TEXT/UTF8 -> SRT (3)
size: 165.51 KB (169487)
Track #10: subtitles (Sub-full)
lang: Unknown (1)
type: S_TEXT/UTF8 -> SRT (3)
size: 54.35 KB (55659)
Track #11: subtitles (Sub-SDH)
lang: Unknown (1)
type: S_TEXT/UTF8 -> SRT (3)
size: 66.10 KB (67689)
Track #12: subtitles (Sub-SDH-COLORED)
lang: Unknown (1)
type: S_TEXT/UTF8 -> SRT (3)
size: 79.95 KB (81867)
Track #13: subtitles (Sub-Commentary)
lang: Unknown (1)
type: S_TEXT/UTF8 -> SRT (3)
size: 120.85 KB (123752)
Sizes: (check sanity)
disk: 28.67 GB (30787952264)
trac: 8.67 GB (9308084702) [based on track size]
bitr: 28.67 GB (30782358253) [based on bitrate]
tdif: 20.00 GB (21479867562) 69.76%
bdif: 5.33 MB (5594010) 0.01%

Благодарность

Автор ремукса Talian70
За перевод Гаврилова большое спасибо пользователям:
_MyxAmoP_; dunhill200; lexal; Chistobaev; Gangster; Brown15; kinobbk; GaryH; nimph; rydanes; kondratzx; Role; ultrajeka; hulahup; Диммон; therox; savely75; foxlight; karantin66; Vimann; Denis1980; aladdin; fly32
Скриншоты: Время раздачи: По возможности
[Профиль] [ЛС]
Показать сообщения:    

Текущее время: Сегодня 07:02

Часовой пояс: GMT



Вы не можете начинать темы
Вы не можете отвечать на сообщения
Вы не можете редактировать свои сообщения
Вы не можете удалять свои сообщения
Вы не можете голосовать в опросах
Вы не можете прикреплять файлы к сообщениям
Вы не можете скачивать файлы