Новый парень моей мамы / My Mom\'s New Boyfriend (Джордж Галло / George Gallo) [2008, США, Германия, боевик, триллер, мелодрама, комедия, DVDRip] DVO + AVO (Дольский)

 
Автор Сообщение

TorrentFilm ®

Пол:

Стаж: 2 года

Сообщений: 7741



Награды: Нет

Торрент-статистика

Создавать темы 04-Фев-2016 00:08

[Цитировать]

Новый парень моей мамы / My Mom's New Boyfriend
Страна: США, Германия
Жанр: боевик, триллер, мелодрама, комедия
Год выпуска: 2008
Продолжительность: 01:37:01
Перевод 1: Профессиональный (двухголосый закадровый)
Перевод 2: Авторский (одноголосый закадровый) Андрей Дольский
Cубтитры: нет
Оригинальная аудиодорожка: нет
Режиссер: Джордж Галло / George Gallo
В ролях: Антонио Бандерас, Мег Райан, Колин Хэнкс, Сэльма Блэр, Тревор Морган, Джон Вальдетеро, Эли Данкер, Том Адамс, Кит Дэвид, Энрико Колантони и др.
Описание: Молодой агент ФБР получает непростое задание: шпионить за своей матерью и ее ухажером, подозреваемым в воровстве.

Сэмпл: https://www.sendspace.com/file/0ueith
Качество видео: DVDRip
Формат видео: AVI
Видео: 720x400 (16:9), 23.976 fps, XviD build 64 ~1711 kbps avg, 0.248 bit/pixel
Аудио 1: AC3 Dolby Digital, 48 kHz, 448 kbps, 3/2 (L,C,R,l,r) + LFE ch - DVO
Аудио 2: AC3 Dolby Digital, 48 kHz, 192 kbps, 2/0 (L,R) - AVO (отдельным файлом)

MediaInfo

Общее
Полное имя : G:\Downloads\My.Mom's.New.Boyfriend.2008.DVDRip.XviD\My.Mom's.New.Boyfriend.2008.DVDRip.XviD.avi
Формат : AVI
Формат/Информация : Audio Video Interleave
Размер файла : 1,47 Гбайт
Продолжительность : 1 ч. 37 м.
Общий поток : 2168 Кбит/сек
Программа кодирования : VirtualDubMod 1.5.10.2 (build 2540/release)
Библиотека кодирования : VirtualDubMod build 2540/release
Видео
Идентификатор : 0
Формат : MPEG-4 Visual
Профиль формата : Advanced Simple@L5
Параметр BVOP формата : 1
Параметр QPel формата : Нет
Параметр GMC формата : Без точки перехода
Параметр матрицы формата : Выборочная
Идентификатор кодека : XVID
Идентификатор кодека/Подсказка : XviD
Продолжительность : 1 ч. 37 м.
Битрейт : 1711 Кбит/сек
Ширина : 720 пикселей
Высота : 400 пикселей
Соотношение сторон : 16:9
Частота кадров : 23,976 кадра/сек
Частота кадров в оригинале : 25,000 кадров/сек
Цветовое пространство : YUV
Субдискретизация насыщенности : 4:2:0
Битовая глубина : 8 бит
Тип развёртки : Прогрессивная
Метод сжатия : С потерями
Бит/(Пиксели*Кадры) : 0.248
Размер потока : 1,16 Гбайт (79%)
Библиотека кодирования : XviD 64
Аудио
Идентификатор : 1
Формат : AC-3
Формат/Информация : Audio Coding 3
Расширение режима : CM (complete main)
Параметр Endianness формата : Big
Идентификатор кодека : 2000
Продолжительность : 1 ч. 37 м.
Вид битрейта : Постоянный
Битрейт : 448 Кбит/сек
Каналы : 6 каналов
Расположение каналов : Front: L C R, Side: L R, LFE
Частота : 48,0 КГц
Битовая глубина : 16 бит
Метод сжатия : С потерями
Размер потока : 311 Мбайт (21%)
Выравнивание : Разделение по промежуткам
Продолжительность промежутка : 42 мс. (1,00 видеокадр)
Время предзагрузки промежутка : 500 мс.

Скриншот c названием фильма

Скриншоты

Сравнение скриншотов

http://screenshotcomparison.com/comparison/160556
[Профиль] [ЛС]

Создавать темы 12-Июн-2016 08:50 (спустя 4 месяца 8 дней)

Топик был перенесен из форума Фильмы 2011 года в форум Фильмы 2006-2008 года
Russian Mafia
 
Показать сообщения:    

Текущее время: Сегодня 12:42

Часовой пояс: GMT



Вы не можете начинать темы
Вы не можете отвечать на сообщения
Вы не можете редактировать свои сообщения
Вы не можете удалять свои сообщения
Вы не можете голосовать в опросах
Вы не можете прикреплять файлы к сообщениям
Вы не можете скачивать файлы