Новый Гулливер (Александр Птушко) [1935, СССР, советская сказка, DVD5]

 
Автор Сообщение

TorrentFilm ®

Пол:

Стаж: 1 год 11 месяцев

Сообщений: 7741



Награды: Нет

Торрент-статистика

Создавать темы 01-Янв-2016 00:07

[Цитировать]

Новый Гулливер
Страна: СССР
Студия: "Мосфильм"
Жанр: советская сказка
Год выпуска: 1935
Продолжительность: 01:12:55
Cубтитры: нет
Режиссер: Александр Птушко
В ролях: Владимир Константинов, Иван Юдин, Иван Бобров, Феликс Брест, Юрий Хмельницкий, Михаил Дагмаров, Ака Неусыхин, Борис Евгеньев
Описание: Пионер Петя Константинов как лучший юный осводовец (ОСВОД - в СССР Общество спасения на водах) в качестве награды получает любимую книгу - "Путешествия Гулливера" Джонатана Свифта. Вместе с другими пионерами, своими руками отремонтировавшими парусную лодку со звучным именем "Артек", он отправляется на прогулку к ближайшему от пионерского лагеря острову. Там на отдыхе ребята просят вожатого прочитать им вслух Петину книгу. Во время чтения мальчик засыпает и видит себя на месте великана, попавшего в страну лиллипутов. Но, поскольку Петя - советский пионер, он относится к событиям в сказочной стране иначе, чем его литературный предшественник...
Доп. информация: Фильм перешел в общественное достояние.
Сценарий: Сигизмунд Кржижановский, Александр Птушко, Григорий Рошаль
Оператор: Николай Ренков
Куклы: Сарра Мокиль, Ольга Таежная
Декорации: Юрий Швец
Композитор: Лев Шварц
Текст песен: Самуил Болотин
Награды: приз "За лучшую программу" на II МКФ в Венеции (1934); почетная грамота студии «Мосфильм» на МКФ в Москве (1935)
Ограничения на просмотр: для любой зрительской аудитории
Интересный факт">

Афиши Интересный факт


"Новый Гулливер" объявлен первым в мировой кинематографии полнометражным фильмом, сделанным средствами объемной мультипликации, с невероятными по тем временам комбинированными съемками, сочетанием игрового и кукольного кино, в котором наряду с 1500 куклами играли живые актеры и были применены многие новаторские методы комбинированных съемок.

Чтобы помнили...

Главную роль в фильме сыграл Володя Константинов (1920-1944). Он родился и жил в Москве, в Банном переулке, окончил школу № 33, был призван в армию и участвовал в Финской войне. Позже учился в Инженерно-строительном институте имени Куйбышева, откуда добровольцем ушёл на фронт в 1941 году и воевал в 7-й Бригаде морской пехоты КБФ, которую позже переформировали в 72-ю стрелковую дивизию (позднее 72-я Павловская Краснознаменная стрелковая дивизия). Погиб 26 марта 1944 года южнее населённого пункта Вайвара-Кирик, в 18 километрах западнее Нарвы. "Новый Гулливер" - его первая и единственная работа в кино. У Володи есть брат Михаил, который до сих пор безуспешно пытается разыскать его могилу.
Это лицензионное издание компании "New Dream Media" с оригинальным звуком 1935 года.
Бонусы: нет
Меню: есть, анимированное, озвученное
Тип релиза: DVD5
Контейнер: DVD-Video
Видео: PAL 4:3 (720x576) VBR, 25 fps, 6949 kbps
Аудио: Russian (Dolby AC3, 2 ch, 48 kHz, 192 kbps)

DVDInfo

Title:
Size: 3.75 Gb ( 3 936 962 KBytes ) - DVD-5
Enabled regions: 1, 2, 3, 4, 5, 6, 7, 8
VTS_01 :
Play Length: 01:12:55
Video: PAL 4:3 (720x576) VBR
Audio:
English (Dolby AC3, 2 ch)
Menu Video:
PAL 4:3 (704x576) VBR
Menu Subtitles:
Not specified
Menu English Language Unit :
Root Menu

MediaInfo

Полное имя : F:\Novyj Gulliver\VIDEO_TS\VTS_01_1.VOB
Формат : MPEG-PS
Размер файла : 1000 Мбайт
Продолжительность : 19 м.
Общий поток : 7286 Кбит/сек
Библиотека кодирования : (c) 1997-2004 Womble Multimedia, Inc. / MPEG-VCR V3.14 (08/2003) / Jan 29 2004
Видео
Идентификатор : 224 (0xE0)
Формат : MPEG Video
Версия формата : Version 2
Профиль формата : Main@Main
Параметр BVOP формата : Да
Параметр матрицы формата : Выборочная
Продолжительность : 19 м.
Вид битрейта : Переменный
Битрейт : 6949 Кбит/сек
Максимальный битрейт : 8500 Кбит/сек
Ширина : 720 пикселей
Высота : 576 пикселей
Соотношение сторон : 4:3
Частота кадров : 25,000 кадров/сек
Стандарт вещания : PAL
Цветовое пространство : YUV
Субдискретизация насыщенности : 4:2:0
Битовая глубина : 8 бит
Тип развёртки : Чересстрочная
Порядок развёртки : Верхнее поле первое
Метод сжатия : С потерями
Бит/(Пиксели*Кадры) : 0.670
Размер потока : 954 Мбайт (95%)
Библиотека кодирования : (c) 1997-2004 Womble Multimedia, Inc. / MPEG-VCR V3.14 (08/2003) / Jan 29 2004
Аудио
Идентификатор : 189 (0xBD)-128 (0x80)
Формат : AC-3
Формат/Информация : Audio Coding 3
Расширение режима : CM (complete main)
Режим смешивания : DVD-Video
Продолжительность : 19 м.
Вид битрейта : Постоянный
Битрейт : 192 Кбит/сек
Каналы : 2 канала
Расположение каналов : Front: L R
Частота : 48,0 КГц
Битовая глубина : 16 бит
Метод сжатия : С потерями
Задержка видео : -80 мс.
Размер потока : 26,4 Мбайт (3%)

Скриншоты меню

Скриншоты

[Профиль] [ЛС]
Показать сообщения:    

Текущее время: Сегодня 09:49

Часовой пояс: GMT



Вы не можете начинать темы
Вы не можете отвечать на сообщения
Вы не можете редактировать свои сообщения
Вы не можете удалять свои сообщения
Вы не можете голосовать в опросах
Вы не можете прикреплять файлы к сообщениям
Вы не можете скачивать файлы