Новый год с доставкой на дом (2014.12.31-2015.01.04) SATRip

 
Автор Сообщение

sergej644 ®

Пол:

Стаж: 4 года 11 месяцев

Сообщений: 6035

Откуда: Soviet Union



Награды: Нет

Торрент-статистика

Создавать темы 04-Янв-2015 22:24

[Цитировать]

- Новый год с доставкой на дом (2014.12.31-2015.01.04) SATRip - Режиссер / Телекомпания: ТВЦ
Русское название: Новый год с доставкой на дом
Год выпуска: 2014
Жанр: Юмористический концерт
Выпущено: Россия
Описание:
Юмористический концерт "Новый год с доставкой на дом" с участием артистов разговорного и оригинального жанра, а также популярных эстрадных певцов.
В первом выпуске концерта принимают участие: Олег Акулич, Андрей Бирин и артисты мюзикла "Красавица и Чудовище", Геннадий Ветров и театр "Ветреные люди", Варвара, Диана Гурцкая, Стас Костюшкин, Анастасия Макеева и ансамбль "Домисолька", Инна Маликова, ансамбль "Новые Самоцветы" и другие.
В первой части второго выпуска концерта принимают участие: Жасмин, Владимир Данилец и Владимир Моисеенко, Владимир Девятов и фолк-группа "ЯR-марка", Ефим Шифрин, ВИА "Сябры", Валентина Коркина и Виктор Остроухов, Глеб Матвейчук и ансамбль "Домисолька".
Во второй части второго выпуска концерта принимают участие: Арт-группа "Сопрано Турецкого", Юрий Аскаров, Анатолий Трушкин, Наталья Гулькина, Святослав Ещенко, Михаил Вашуков, Евгений Петросян и Елена Степаненко, Павел Соколов.
Ведущие: Геннадий Ветров
Продолжительность: 02:39:44
Видеокодек: XVID
Качество видео: SATRip
Битрейт видео: ~1800 kb/s
Размер кадра: 704 x 400
Аудиокодек: MP3, 2.0ch.
Битрейт аудио: 192 kb/s

Mediainfo:

Формат                                   : AVI
Формат/Информация                        : Audio Video Interleave
Размер файла                             : 975 Мбайт
Продолжительность                        : 1 ч. 8 м.
Общий поток                              : 1999 Кбит/сек
Программа кодирования                    : VirtualDubMod 1.5.10.3 | [url=http://www.virtualdub-fr.org]www.virtualdub-fr.org[/url] || (build 2550/release)
Библиотека кодирования                   : VirtualDubMod build 2550/release
Видео
Идентификатор                            : 0
Формат                                   : MPEG-4 Visual
Профиль формата                          : Advanced Simple@L5
Параметр BVOP формата                    : 1
Параметр QPel формата                    : Нет
Параметр GMC формата                     : Без точки перехода
Параметр матрицы формата                 : Default (MPEG)
Идентификатор кодека                     : XVID
Идентификатор кодека/Подсказка           : XviD
Продолжительность                        : 1 ч. 8 м.
Битрейт                                  : 1797 Кбит/сек
Ширина                                   : 704 пикселя
Высота                                   : 400 пикселей
Соотношение сторон                       : 16:9
Частота кадров                           : 25,000 кадров/сек
Цветовое пространство                    : YUV
Субдискретизация насыщенности            : 4:2:0
Битовая глубина                          : 8 бит
Тип развёртки                            : Прогрессивная
Метод сжатия                             : С потерями
Бит/(Пиксели*Кадры)                      : 0.255
Размер потока                            : 877 Мбайт (90%)
Библиотека кодирования                   : XviD 1.2.1 (UTC 2008-12-04)
Аудио
Идентификатор                            : 1
Формат                                   : MPEG Audio
Версия формата                           : Version 1
Профиль формата                          : Layer 3
Идентификатор кодека                     : 55
Идентификатор кодека/Подсказка           : MP3
Продолжительность                        : 1 ч. 8 м.
Вид битрейта                             : Постоянный
Битрейт                                  : 192 Кбит/сек
Каналы                                   : 2 канала
Частота                                  : 48,0 КГц
Метод сжатия                             : С потерями
Размер потока                            : 93,7 Мбайт (10%)
Выравнивание                             : Соединение по промежуткам
Продолжительность промежутка             : 40  мс. (1,00 видеокадр)
Время предзагрузки промежутка            : 504  мс.
Библиотека кодирования                   : LAME3.99r
Настройки программы                      : -m s -V 4 -q 0 -lowpass 18.6 -b 192
Скриншоты: Время раздачи: 24/7. До первых 5 скачавших.
Rip by Печаль--
[Профиль] [ЛС]
Показать сообщения:    

Текущее время: Сегодня 22:34

Часовой пояс: GMT



Вы не можете начинать темы
Вы не можете отвечать на сообщения
Вы не можете редактировать свои сообщения
Вы не можете удалять свои сообщения
Вы не можете голосовать в опросах
Вы не можете прикреплять файлы к сообщениям
Вы не можете скачивать файлы