Новые приключения кота Леопольда [s01] (2016) BDRip 720p | Лицензия

 
Автор Сообщение

достали все ®

Пол:

Стаж: 1 год 8 месяцев

Сообщений: 6611



Награды: 12 (Подробнее)

Mega Releaser 3 (Количество: 1) Mega Releaser 2 (Количество: 1) Mega Releaser 1 (Количество: 1)
Торрент-статистика

Создавать темы 31-Май-2016 10:29

[Цитировать]

Информация о фильме
Оригинальное название: Новые приключения кота Леопольда
Год выпуска: 2016
Выпущено: Россия (Русское мобильное телевидение), Италия (Mondo TV s.p.a.)
Жанр: Мультсериал, рисованный, детский
Продолжительность: 13 x ~ 00:13:00 (02:55:11)
Перевод: не требуется. Русский (Лицензия)
Режиссер: Анатолий Резников, Орландо Корради
В ролях: Александр Калягин, Диомид Виноградов, Андрей Бархударов
О фильме: Продолжение историй об интеллигентном коте, который всегда приветлив и всегда носит галстук-бабочку. Двое мышат, Серый и Белый, постоянно доставляют Леопольду уйму неприятностей. Но что бы они ни придумывали, все их попытки заканчиваются неудачами. И даже в самые трудные моменты, когда, казалось бы, от мышей нет спасения, кот Леопольд не устает повторять девиз всей своей жизни: «Ребята, давайте жить дружно!».

Список серий

1. Бурный поток
2. На рыбалке у реки
3. Под жарким солнцем
4. Вперед за колбасой и сыром
5. Парк развлечений
6. Лавина с гор
7. Сплошные неприятности
8. Все кувырком
9. Кулинарный рецепт
10. Птицы
11. Ремонт в тылу врага
12. Такси вызывали?
13. Новогодняя елка

Доп. инфо

В 2014 году, к 75-летию Анатолия Резникова, было снято продолжение сериала — «Новые приключения кота Леопольда». Правообладателями нового сериала являются Mondo TV Studios (Италия) и «Русское мобильное телевидение». Премьера состоялась в России 1 января 2016 года на телеканале «Мульт».
Файл:
Формат: MKV
Качество: BDRip 720p
Видео: MPEG-4-AVC, High@L4.1, 1280x720 at 25.000 fps, 3176~4440 kbps
Аудио: 48 kHz/24-bit, DTS 2.0, ~1509 kbps
Субтитры: отсутствуют

MI

10. Птицы.mkv
Format : Matroska
Format version : Version 4 / Version 2
File size : 478 MiB
Duration : 13mn 45s
Overall bit rate : 4 854 Kbps
Encoded date : UTC 2016-05-29 15:07:50
Writing application : mkvmerge v8.3.0 ('Over the Horizon') 32bit
Writing library : libebml v1.3.1 + libmatroska v1.4.2
Video
ID : 1
Format : AVC
Format/Info : Advanced Video Codec
Format profile : High@L4.1
Format settings, CABAC : Yes
Format settings, ReFrames : 9 frames
Codec ID : V_MPEG4/ISO/AVC
Duration : 13mn 45s
Bit rate : 3 343 Kbps
Width : 1 280 pixels
Height : 720 pixels
Display aspect ratio : 16:9
Frame rate mode : Constant
Frame rate : 25.000 fps
Color space : YUV
Chroma subsampling : 4:2:0
Bit depth : 8 bits
Scan type : Progressive
Bits/(Pixel*Frame) : 0.145
Stream size : 329 MiB (69%)
Writing library : x264 core 148 r2692+54 69a6f49 t_mod_Custom [8-bit@all X86_64]
Encoding settings : cabac=1 / ref=9 / deblock=1:-3:-3 / analyse=0x3:0x133 / me=umh / subme=10 / psy=1 / fade_compensate=0.00 / psy_rd=0.80:0.05 / mixed_ref=1 / me_range=24 / chroma_me=1 / trellis=2 / 8x8dct=1 / cqm=0 / deadzone=21,11 / fast_pskip=0 / chroma_qp_offset=-3 / threads=6 / lookahead_threads=1 / sliced_threads=0 / nr=0 / decimate=1 / interlaced=0 / bluray_compat=0 / constrained_intra=0 / fgo=0 / bframes=9 / b_pyramid=2 / b_adapt=2 / b_bias=0 / direct=3 / weightb=1 / open_gop=0 / weightp=2 / keyint=250 / keyint_min=25 / scenecut=40 / intra_refresh=0 / rc_lookahead=60 / rc=crf / mbtree=0 / crf=16.0000 / qcomp=0.55 / qpmin=0:0:0 / qpmax=69:69:69 / qpstep=4 / vbv_maxrate=62500 / vbv_bufsize=78125 / crf_max=0.0 / nal_hrd=none / filler=0 / ip_ratio=1.40 / pb_ratio=1.30 / aq=1:0.60 / aq-sensitivity=10.00 / aq-factor=1.00:1.00:1.00 / aq2=0 / aq3=0
Language : English
Default : Yes
Forced : No
Color range : Limited
Matrix coefficients : BT.709
Audio
ID : 2
Format : DTS
Format/Info : Digital Theater Systems
Mode : 16
Format settings, Endianness : Big
Codec ID : A_DTS
Duration : 13mn 45s
Bit rate mode : Constant
Bit rate : 1 509 Kbps
Channel(s) : 2 channels
Channel positions : Front: L R
Sampling rate : 48.0 KHz
Frame rate : 93.750 fps (512 spf)
Bit depth : 24 bits
Compression mode : Lossy
Stream size : 149 MiB (31%)
Language : Russian
Default : Yes
Forced : No

Скриншоты

Рип от: SbR
[Профиль] [ЛС]
Кто просматривает тему:

Форум Тема Автор Размер
Dance, Club (Club, Dance)VA - Новые клубные хиты (2014) [MP3|320 кб/с] sergej644 675 MB
Dance, Club (Club, Dance)Сборник - Новые клубные прайм хиты (2015) MP3 BOSS 819 MB
Metal (Heavy Metal) Черный кофе - Старые И Новые Хиты - 2014 [MP3, tracks, 320 kbps] sergej644 194 MB
Фильмы 2011 года 2019: Новые варвары / I nuovi barbari (Энцо Дж. Кастеллари) [1983 г., фантастика, боевик, триллер, BDRip] [MVO] Bathory 1.46 GB
BBC BBC: Помпеи: новые секреты / Pompeii: New Secrets Revealed with Mary Beard (Ian A. Hunt) [2016 г., Документальный, история, исследования, HDTVRip 720p] skorpionN 1.8 GB
National Geographic NG: Новые горизонты. Миссия: Плутон (Встреча с Плутоном) / New Horizons: Die Pluto Mission (Nic Young) [2014 г., Документальный, научно-познавательный, космос, HDTVRip 720p] skorpionN 1.09 GB
Фантастика, фэнтези Аноним (Роман Канушкин) - Канал имени Москвы (Новые легенды, 1) [Городское фэнтези, 2015, FB2] Garik014 2 MB
Мультфильмы СССР Возвращение блудного попугая / Новые приключения попугая Кеши [01-05 из 05] (1984-2005) DVDRip Белочка 912 MB
Показать сообщения:    

Текущее время: Сегодня 13:00

Часовой пояс: GMT



Вы не можете начинать темы
Вы не можете отвечать на сообщения
Вы не можете редактировать свои сообщения
Вы не можете удалять свои сообщения
Вы не можете голосовать в опросах
Вы не можете прикреплять файлы к сообщениям
Вы не можете скачивать файлы